Угловой офис / Corner Office (2022) WEB-DLRip [H.264] [MVO]

Ответить на тему
 
Автор Сообщение

admin ®

Пол: Не указан

Стаж: 5 месяца 1 день

Сообщений: 10110

Создавать темы 30-Янв-2024 17:11

[Цитировать]

Угловой офис / Corner Office (2022) WEB-DLRip - Производство: США / Tilt 9 Entertainment, Anonymous Content, Goldenlight Films
Жанр: комедия
Режиссер: Йоахим Бак
Продюсер: Эндрю Харви, Дэвид Милчард, Оливер Ридж
Актеры: Джон Хэмм, Дэнни Пуди, Кристофер Хейердал, Эллисон Райли, Шон МакДональд, Марк Доцлав, Сара Гадон, Билл Мэрчент, Конор Стинсон О’Горман, Кимберли Шоникер
Описание:
Орсону сложно освоиться на новом месте. Он не в силах наладить контакт с коллегами, включая загадочного Ракеша, который трудится за соседним столом. Во время изучения офиса герой находит странную дверь, которая ведёт в секретный кабинет, о котором не знают другие сотрудники. Посещение тайного места раскрывает потенциал Орсона, который сразу обретает уверенность в себе. Герой решает, что кабинет поможет ему в карьере. Орсон становится более раскованным и дерзким, но его поведение начинает беспокоить коллег, которые ничего не знают о тайном месте.
Рейтинг MPAA: PG-13 (детям до 13 лет просмотр нежелателен)
Релиз от: Rip by vitolinform
Продолжительность: 01:41:29
Качество видео: WEB-DLRip
Перевод: Многоголосый профессиональный (HDRezka Studio)
Язык озвучки: русский, английский
Субтитры: русские (forced), английские (full, SDH), французские
Видео: AVC/H.264, 1024x426, ~1522 Кbps
Аудио 1: AC3, 6 ch, 448 Kbps | Русский (MVO, HDRezka Studio)
Аудио 2: AC3, 6 ch, 448 Kbps | Английский

MediaInfo:

raw [info]: 1024x426p 1:1 @ 24000/1001 fps (cfr)
x264 [info]: using SAR=1/1
x264 [info]: using cpu capabilities: MMX2 SSE2Fast SSSE3 SSE4.2 AVX FMA3 BMI2 AVX2
x264 [info]: profile High, level 4.1, 4:2:0, 8-bit
x264 [info]: frame I:1217 Avg QP:14.75 size: 55528
x264 [info]: frame P:28122 Avg QP:15.87 size: 19410
x264 [info]: frame B:116663 Avg QP:17.86 size: 4672
x264 [info]: consecutive B-frames: 1.3% 1.3% 3.0% 22.3% 13.0% 37.0% 8.0% 8.4% 2.1% 1.4% 2.1%
x264 [info]: mb I I16..4: 12.8% 68.5% 18.7%
x264 [info]: mb P I16..4: 0.9% 7.9% 0.8% P16..4: 35.1% 27.9% 17.6% 0.0% 0.0% skip: 9.7%
x264 [info]: mb B I16..4: 0.1% 0.5% 0.1% B16..8: 35.2% 11.2% 3.6% direct: 2.9% skip:46.5% L0:46.6% L1:45.8% BI: 7.6%
x264 [info]: 8x8 transform intra:77.5% inter:49.7%
x264 [info]: coded y,uvDC,uvAC intra: 90.2% 72.1% 56.9% inter: 17.6% 10.3% 5.6%
x264 [info]: i16 v,h,dc,p: 50% 8% 16% 26%
x264 [info]: i8 v,h,dc,ddl,ddr,vr,hd,vl,hu: 12% 10% 19% 8% 10% 10% 10% 10% 12%
x264 [info]: i4 v,h,dc,ddl,ddr,vr,hd,vl,hu: 15% 10% 5% 9% 13% 13% 12% 11% 13%
x264 [info]: i8c dc,h,v,p: 48% 26% 18% 8%
x264 [info]: Weighted P-Frames: Y:2.3% UV:1.3%
x264 [info]: ref P L0: 45.8% 7.5% 18.1% 5.7% 5.6% 3.3% 3.7% 1.5% 1.9% 1.2% 1.5% 1.0% 1.2% 0.8% 1.1% 0.0%
x264 [info]: ref B L0: 58.6% 14.9% 7.9% 4.2% 3.0% 2.7% 2.1% 1.4% 1.2% 1.2% 1.0% 1.0% 0.6% 0.3%
x264 [info]: ref B L1: 90.8% 9.2%
x264 [info]: kb/s:1521.94
x264 [total]: encoded 146002 frames, 12.74 fps, 1521.94 kb/s
=============================================================
General
Unique ID : 111492814928324227140921983083598621727 (0x53E0BC2E8F589521B44232F70160AC1F)
Complete name : D:\Uglovoj.ofis.2022.AMZN.WEB-DLRip.AVC.mkv
Format : Matroska
Format version : Version 4
File size : 1.72 GiB
Duration : 1 h 41 min
Overall bit rate : 2 420 kb/s
Frame rate : 23.976 FPS
Movie name : Corner Office (2022) WEB-DLRip AVC _ vitolinform
Encoded date : 2023-08-07 05:20:41 UTC
Writing application : mkvmerge v76.0 ('Celebration') 64-bit
Writing library : libebml v1.4.4 + libmatroska v1.7.1
Attachments : poster.jpg / log.log
Video
ID : 1
Format : AVC
Format/Info : Advanced Video Codec
Format profile : High@L4.1
Format settings : CABAC / 15 Ref Frames
Format settings, CABAC : Yes
Format settings, Reference frames : 15 frames
Codec ID : V_MPEG4/ISO/AVC
Duration : 1 h 41 min
Bit rate : 1 522 kb/s
Width : 1 024 pixels
Height : 426 pixels
Display aspect ratio : 2.40:1
Frame rate mode : Constant
Frame rate : 23.976 (24000/1001) FPS
Color space : YUV
Chroma subsampling : 4:2:0
Bit depth : 8 bits
Scan type : Progressive
Bits/(Pixel*Frame) : 0.146
Stream size : 1.08 GiB (63%)
Title : Угловой офис / Corner Office (2022)
Writing library : x264 core 164 r3101 b093bbe
Encoding settings : cabac=1 / ref=15 / deblock=1:-3:-3 / analyse=0x3:0x113 / me=umh / subme=10 / psy=1 / psy_rd=1.00:0.05 / mixed_ref=1 / me_range=32 / chroma_me=1 / trellis=2 / 8x8dct=1 / cqm=0 / deadzone=21,11 / fast_pskip=0 / chroma_qp_offset=-3 / threads=12 / lookahead_threads=5 / sliced_threads=0 / nr=0 / decimate=0 / interlaced=0 / bluray_compat=0 / constrained_intra=0 / bframes=10 / b_pyramid=2 / b_adapt=2 / b_bias=0 / direct=1 / weightb=1 / open_gop=0 / weightp=2 / keyint=240 / keyint_min=24 / scenecut=40 / intra_refresh=0 / rc_lookahead=40 / rc=crf / mbtree=0 / crf=17.8 / qcomp=0.60 / qpmin=0 / qpmax=69 / qpstep=4 / vbv_maxrate=50000 / vbv_bufsize=62500 / crf_max=0.0 / nal_hrd=none / filler=0 / ip_ratio=1.40 / pb_ratio=1.40 / aq=1:1.00
Language : English
Default : Yes
Forced : No
Color range : Limited
Color primaries : BT.709
Transfer characteristics : BT.709
Matrix coefficients : BT.709
Audio #1
ID : 2
Format : AC-3
Format/Info : Audio Coding 3
Commercial name : Dolby Digital
Codec ID : A_AC3
Duration : 1 h 41 min
Bit rate mode : Constant
Bit rate : 448 kb/s
Channel(s) : 6 channels
Channel layout : L R C LFE Ls Rs
Sampling rate : 48.0 kHz
Frame rate : 31.250 FPS (1536 SPF)
Compression mode : Lossy
Stream size : 325 MiB (19%)
Title : MVO | HDRezka Studio
Language : Russian
Service kind : Complete Main
Default : Yes
Forced : No
Audio #2
ID : 3
Format : AC-3
Format/Info : Audio Coding 3
Commercial name : Dolby Digital
Codec ID : A_AC3
Duration : 1 h 41 min
Bit rate mode : Constant
Bit rate : 448 kb/s
Channel(s) : 6 channels
Channel layout : L R C LFE Ls Rs
Sampling rate : 48.0 kHz
Frame rate : 31.250 FPS (1536 SPF)
Compression mode : Lossy
Stream size : 325 MiB (19%)
Title : English
Language : English
Service kind : Complete Main
Default : No
Forced : No
Text #1
ID : 4
Format : UTF-8
Codec ID : S_TEXT/UTF8
Codec ID/Info : UTF-8 Plain Text
Duration : 1 h 34 min
Bit rate : 0 b/s
Frame rate : 0.002 FPS
Count of elements : 11
Stream size : 278 Bytes (0%)
Title : Forced
Language : Russian
Default : Yes
Forced : Yes
Text #2
ID : 5
Format : UTF-8
Codec ID : S_TEXT/UTF8
Codec ID/Info : UTF-8 Plain Text
Duration : 1 h 35 min
Bit rate : 67 b/s
Frame rate : 0.215 FPS
Count of elements : 1235
Stream size : 47.3 KiB (0%)
Title : Full
Language : English
Default : No
Forced : No
Text #3
ID : 6
Format : UTF-8
Codec ID : S_TEXT/UTF8
Codec ID/Info : UTF-8 Plain Text
Duration : 1 h 40 min
Bit rate : 68 b/s
Frame rate : 0.228 FPS
Count of elements : 1374
Stream size : 50.7 KiB (0%)
Title : SDH
Language : English
Default : No
Forced : No
Text #4
ID : 7
Format : UTF-8
Codec ID : S_TEXT/UTF8
Codec ID/Info : UTF-8 Plain Text
Duration : 1 h 36 min
Bit rate : 61 b/s
Frame rate : 0.196 FPS
Count of elements : 1132
Stream size : 43.3 KiB (0%)
Title : Full
Language : French
Default : No
Forced : No
Скриншоты:
Все одноименные релизы в КлубеВремя раздачи: как минимум до появления первых 3-5 скачавших, 24/7 (мультитрекерная раздача)
[Профиль] [ЛС]
Показать сообщения:    
Ответить на тему

Текущее время: 29-Фев 11:36

Часовой пояс: UTC ± 0



Вы не можете начинать темы
Вы не можете отвечать на сообщения
Вы не можете редактировать свои сообщения
Вы не можете удалять свои сообщения
Вы не можете голосовать в опросах
Вы не можете прикреплять файлы к сообщениям
Вы не можете скачивать файлы

[  Время выполнения: 0,044 сек  |  MySQL: 0,004 сек (8%) · 3 запр.  |  GZIP выкл  |  Память: 422,29 KB / 1,75 MB / 1,37 MB  |  Лимит: 10 10 10  ]