Ужас Истфилда. Первое изгнание / Godless: The Eastfield Exorcism (2022) WEB-DL [H.264/1080p]

Ответить на тему
 
Автор Сообщение

admin ®

Пол: Не указан

Стаж: 5 месяца 1 день

Сообщений: 10110

Создавать темы 30-Янв-2024 17:11

[Цитировать]

Ужас Истфилда. Первое изгнание / Godless: The Eastfield Exorcism (2022) WEB-DL [H.264/1080p]- Производство: Австралия / Harvest Pictures Group, Iris Arc Pictures, Visible Studios
Жанр: ужасы
Режиссер: Ник Козакис
Актеры: Джорджия Эйерс, Дэниэл Юинг, Тим Пакок, Рози Трэйнор, Джон Вуд, Элиза Матенгу, Элла Борн, Санни С. Валия, Карлия Капоцца, Хью Секстон
Описание:
Над семьей Рона Левонда нависло проклятие. Его жену Лару мучают кошмары, которые способны проникать в реальную жизнь семейства. Глава религиозной общины Истфилда считает, что женщиной овладел могущественный демон, и им следует провести обряд экзорцизма. Для решающей битвы с дьяволом она призывает на помощь пастве лучшего экзорциста в стране.
Возраст: 18+ (зрителям, достигшим 18 лет. запрещено для детей)
Релиз от: ELEKTRI4KA
Продолжительность: 01:28:12
Качество видео: WEB-DL
Перевод: Дублированный (Paragraph Media)
Язык озвучки: Русский
Субтитры: отсутствуют
Видео: AVC/H.264, 1920x804, 5000 Kbps
Аудио 1: AC3, 6 ch, 384 Kbps - Русский
Аудио 2: E-AC3, 6 ch, 384 Kbps - Русский

MediaInfo:

Complete name : Uzhas.Istfilda.Pervoe.izgnanie.2022.WEB-DL.1080p.ELEKTRI4KА.UNIONGANG.mkv
Format : Matroska
Format version : Version 4
File size : 3.49 GiB
Duration : 1 h 28 min
Overall bit rate : 5 667 kb/s
Movie name : Uzhas.Istfilda.Pervoe.izgnanie.2022.WEB-DL.1080p.ELEKTRI4KA.UNIONGANG.
Encoded date : UTC 2023-08-06 18:13:31
Writing application : mkvmerge v8.3.0 ('Over the Horizon') 64bit
Writing library : libebml v1.3.1 + libmatroska v1.4.2
Video
ID : 1
Format : AVC
Format/Info : Advanced Video Codec
Format profile : High@L4
Format settings : CABAC / 3 Ref Frames
Format settings, CABAC : Yes
Format settings, Reference frames : 3 frames
Codec ID : V_MPEG4/ISO/AVC
Duration : 1 h 28 min
Bit rate : 5 000 kb/s
Width : 1 920 pixels
Height : 804 pixels
Display aspect ratio : 2.40:1
Frame rate mode : Constant
Frame rate : 25.000 FPS
Color space : YUV
Chroma subsampling : 4:2:0
Bit depth : 8 bits
Scan type : Progressive
Bits/(Pixel*Frame) : 0.130
Stream size : 3.02 GiB (86%)
Writing library : x264 core 164 r3095 baee400
Encoding settings : cabac=1 / ref=4 / deblock=1:-1:-1 / analyse=0x3:0x133 / me=umh / subme=9 / psy=1 / psy_rd=0.40:1.00 / mixed_ref=1 / me_range=24 / chroma_me=1 / trellis=0 / 8x8dct=1 / cqm=0 / deadzone=21,11 / fast_pskip=1 / chroma_qp_offset=-2 / threads=3 / lookahead_threads=1 / sliced_threads=0 / nr=0 / decimate=1 / interlaced=0 / bluray_compat=0 / stitchable=1 / constrained_intra=0 / bframes=8 / b_pyramid=1 / b_adapt=0 / b_bias=0 / direct=3 / weightb=1 / open_gop=0 / weightp=2 / keyint=75 / keyint_min=38 / scenecut=0 / intra_refresh=0 / rc_lookahead=40 / rc=2pass / mbtree=1 / bitrate=5000 / ratetol=1.0 / qcomp=0.80 / qpmin=1 / qpmax=69 / qpstep=4 / cplxblur=20.0 / qblur=0.5 / vbv_maxrate=7500 / vbv_bufsize=10000 / nal_hrd=none / filler=0 / ip_ratio=1.40 / aq=1:1.00
Default : Yes
Forced : No
Audio #1
ID : 2
Format : AC-3
Format/Info : Audio Coding 3
Commercial name : Dolby Digital
Codec ID : A_AC3
Duration : 1 h 28 min
Bit rate mode : Constant
Bit rate : 384 kb/s
Channel(s) : 6 channels
Channel layout : L R C LFE Ls Rs
Sampling rate : 48.0 kHz
Frame rate : 31.250 FPS (1536 SPF)
Compression mode : Lossy
Stream size : 242 MiB (7%)
Title : DUB AC3 (Paragraph Media)
Language : Russian
Service kind : Complete Main
Default : Yes
Forced : Yes
Audio #2
ID : 3
Format : E-AC-3
Format/Info : Enhanced AC-3
Commercial name : Dolby Digital Plus
Codec ID : A_EAC3
Duration : 1 h 28 min
Bit rate mode : Constant
Bit rate : 384 kb/s
Channel(s) : 6 channels
Channel layout : L R C LFE Ls Rs
Sampling rate : 48.0 kHz
Frame rate : 31.250 FPS (1536 SPF)
Compression mode : Lossy
Stream size : 242 MiB (7%)
Title : DUB EAC3 (Paragraph Media)
Language : Russian
Service kind : Complete Main
Default : No
Forced : No
Скриншоты:
Все одноименные релизы в КлубеВремя раздачи: 24/7 (мультитрекер)
[Профиль] [ЛС]
Показать сообщения:    
Ответить на тему

Текущее время: 29-Фев 11:54

Часовой пояс: UTC ± 0



Вы не можете начинать темы
Вы не можете отвечать на сообщения
Вы не можете редактировать свои сообщения
Вы не можете удалять свои сообщения
Вы не можете голосовать в опросах
Вы не можете прикреплять файлы к сообщениям
Вы не можете скачивать файлы

[  Время выполнения: 0,035 сек  |  MySQL: 0,003 сек (9%) · 3 запр.  |  GZIP выкл  |  Память: 422,29 KB / 1,73 MB / 1,33 MB  |  Лимит: 9 9 10  ]