Угловой офис / Corner Office (2022) WEB-DL [H.264/1080p] [MVO]

Ответить на тему
 
Автор Сообщение

admin ®

Пол: Не указан

Стаж: 5 месяца 1 день

Сообщений: 10110

Создавать темы 30-Янв-2024 17:10

[Цитировать]

Угловой офис / Corner Office (2022) WEB-DL [H.264/1080p]- Производство: США / Tilt 9 Entertainment, Anonymous Content, Goldenlight Films
Жанр: комедия
Режиссер: Йоахим Бак
Продюсер: Эндрю Харви, Дэвид Милчард, Оливер Ридж
Актеры: Джон Хэмм, Дэнни Пуди, Кристофер Хейердал, Эллисон Райли, Шон МакДональд, Марк Доцлав, Сара Гадон, Билл Мэрчент, Конор Стинсон О’Горман, Кимберли Шоникер
Описание:
Орсону сложно освоиться на новом месте. Он не в силах наладить контакт с коллегами, включая загадочного Ракеша, который трудится за соседним столом. Во время изучения офиса герой находит странную дверь, которая ведёт в секретный кабинет, о котором не знают другие сотрудники. Посещение тайного места раскрывает потенциал Орсона, который сразу обретает уверенность в себе. Герой решает, что кабинет поможет ему в карьере. Орсон становится более раскованным и дерзким, но его поведение начинает беспокоить коллег, которые ничего не знают о тайном месте.
Рейтинг MPAA: PG-13 (детям до 13 лет просмотр нежелателен)
Релиз от: JNS82
Продолжительность: 01:41:29
Качество видео: WEB-DL
Перевод: Многоголосый профессиональный (HDRezka Studio)
Язык озвучки: русский, английский
Субтитры: русские (forced), английские (full, SDH)
Видео: AVC/H.264, 1920x800, ~8285 Кbps
Аудио 1: AC3, 6 ch, 448 Kbps | русский
Аудио 2: E-AC3, 6 ch, 640 Kbps | английский

MediaInfo:

General
Unique ID : 178456036412346000519623965599149959775 (0x864161E6D285C6A49FBABEB26721AA5F)
Complete name : E:\Torrents\Corner.Office.2023.1080p.AMZN_от New-Team_JNS82.mkv
Format : Matroska
Format version : Version 4
File size : 6.65 GiB
Duration : 1 h 41 min
Overall bit rate : 9 377 kb/s
Movie name : Corner.Office.2023.1080p.AMZN_от New-Team_JNS82
Encoded date : UTC 2023-08-07 05:10:11
Writing application : mkvmerge v59.0.0 ('Shining Star') 64-bit
Writing library : libebml v1.4.2 + libmatroska v1.6.4
Video
ID : 1
Format : AVC
Format/Info : Advanced Video Codec
Format profile : High@L4
Format settings : CABAC / 4 Ref Frames
Format settings, CABAC : Yes
Format settings, Reference : 4 frames
Codec ID : V_MPEG4/ISO/AVC
Duration : 1 h 41 min
Bit rate mode : Constant
Bit rate : 8 287 kb/s
Nominal bit rate : 10 000 kb/s
Width : 1 920 pixels
Height : 800 pixels
Display aspect ratio : 2.40:1
Frame rate mode : Constant
Frame rate : 23.976 (24000/1001) FPS
Color space : YUV
Chroma subsampling : 4:2:0
Bit depth : 8 bits
Scan type : Progressive
Bits/(Pixel*Frame) : 0.225
Stream size : 5.87 GiB (88%)
Title : NT
Language : English
Default : Yes
Forced : No
Color range : Limited
Color primaries : BT.709
Transfer characteristics : BT.709
Matrix coefficients : BT.709
Audio #1
ID : 2
Format : AC-3
Format/Info : Audio Coding 3
Commercial name : Dolby Digital
Codec ID : A_AC3
Duration : 1 h 41 min
Bit rate mode : Constant
Bit rate : 448 kb/s
Channel(s) : 6 channels
Channel layout : L R C LFE Ls Rs
Sampling rate : 48.0 kHz
Frame rate : 31.250 FPS (1536 SPF)
Compression mode : Lossy
Stream size : 325 MiB (5%)
Title : MVO - HDRezka Studio
Language : Russian
Service kind : Complete Main
Default : Yes
Forced : No
Audio #2
ID : 3
Format : E-AC-3
Format/Info : Enhanced AC-3
Commercial name : Dolby Digital Plus
Codec ID : A_EAC3
Duration : 1 h 41 min
Bit rate mode : Constant
Bit rate : 640 kb/s
Channel(s) : 6 channels
Channel layout : L R C LFE Ls Rs
Sampling rate : 48.0 kHz
Frame rate : 31.250 FPS (1536 SPF)
Compression mode : Lossy
Stream size : 465 MiB (7%)
Title : Original
Language : English
Service kind : Complete Main
Default : No
Forced : No
Text #1
ID : 4
Format : UTF-8
Codec ID : S_TEXT/UTF8
Codec ID/Info : UTF-8 Plain Text
Duration : 1 h 34 min
Bit rate : 0 b/s
Count of elements : 11
Stream size : 278 Bytes (0%)
Title : [forced [HDRezka]]
Language : Russian
Default : Yes
Forced : No
Text #2
ID : 5
Format : UTF-8
Codec ID : S_TEXT/UTF8
Codec ID/Info : UTF-8 Plain Text
Duration : 1 h 35 min
Bit rate : 67 b/s
Count of elements : 1235
Stream size : 47.3 KiB (0%)
Title : [full]
Language : English
Default : No
Forced : No
Text #3
ID : 6
Format : UTF-8
Codec ID : S_TEXT/UTF8
Codec ID/Info : UTF-8 Plain Text
Duration : 1 h 40 min
Bit rate : 68 b/s
Count of elements : 1374
Stream size : 50.7 KiB (0%)
Title : [SDH]
Language : English
Default : No
Forced : No
Скриншоты:
Все одноименные релизы в КлубеВремя раздачи: как минимум до появления первых 3-5 скачавших, 24/7 (мультитрекерная раздача)
[Профиль] [ЛС]
Показать сообщения:    
Ответить на тему

Текущее время: 29-Фев 12:10

Часовой пояс: UTC ± 0



Вы не можете начинать темы
Вы не можете отвечать на сообщения
Вы не можете редактировать свои сообщения
Вы не можете удалять свои сообщения
Вы не можете голосовать в опросах
Вы не можете прикреплять файлы к сообщениям
Вы не можете скачивать файлы

[  Время выполнения: 0,036 сек  |  MySQL: 0,003 сек (9%) · 5 запр.  |  GZIP выкл  |  Память: 422,29 KB / 1,74 MB / 1,34 MB  |  Лимит: 16 12 10  ]