Коллектив / The Collective (2023) WEB-DLRip [H.264/1080p] [MVO] [AD]

Ответить на тему
 
Автор Сообщение

admin ®

Пол: Не указан

Стаж: 5 месяца 1 день

Сообщений: 10110

Создавать темы 30-Янв-2024 17:10

[Цитировать]

Коллектив / The Collective (2023) WEB-DLRip [H.264/1080p] - Производство: США / Yale Productions, Dawn's Light
Жанр: боевик
Режиссер: Том ДеНуччи
Актеры: Руби Роуз, Дон Джонсон, Лукас Тилл, Пол Бен-Виктор, Мерседес Кестнер-Варнадо, Тайриз Гибсон, Джон Фиоре, Джулия Терранова, Дэвид Мэрчент, Левон Панек и др.
Описание:
Сэм Алекзандр - молодой рекрут таинственного агентства убийц на своем первом задании выходит на след опасной группы торговцев людьми, которую возглавляет жестокий босс - Миро Ланделл. Миро хочет продать человека, который слишком много знает и теперь Сэму надо спасти заложника и убить Миро…
Релиз от: ViruseProject
Продолжительность: 01:28:13
Качество видео: WEB-DLRip 1080p
Перевод: Профессиональный двухголосый (ViruseProject)
Язык озвучки: Русский, английский
Субтитры: Русские
Реклама: Присутствуют видео, аудио вставки рекламы
Видео: AVC/H.264, 1920x1080 (16:9), ~4953 Kbps
Аудио 1: AC3, 2 ch, 224 Kbps - русский
Аудио 2: AC3, 2 ch, 224 Kbps - английский

MediaInfo:

General
Unique ID : 195190787156267500257885768025059748871 (0x92D860D0C014FF67B81AB4D84DF9EC07)
Complete name : The.Collective.2023.1080p.WEB-DLRip.ViruseProject.mkv
Format : Matroska
Format version : Version 4
File size : 3.33 GiB
Duration : 1 h 28 min
Overall bit rate : 5 404 kb/s
Encoded date : UTC 2023-08-06 17:17:44
Writing application : mkvmerge v8.3.0 ('Over the Horizon') 64bit
Writing library : libebml v1.3.1 + libmatroska v1.4.2
Video
ID : 1
Format : AVC
Format/Info : Advanced Video Codec
Format profile : High@L4
Format settings : CABAC / 4 Ref Frames
Format settings, CABAC : Yes
Format settings, Reference frames : 4 frames
Codec ID : V_MPEG4/ISO/AVC
Duration : 1 h 28 min
Bit rate : 4 953 kb/s
Width : 1 920 pixels
Height : 1 080 pixels
Display aspect ratio : 16:9
Frame rate mode : Constant
Frame rate : 23.976 (24000/1001) FPS
Color space : YUV
Chroma subsampling : 4:2:0
Bit depth : 8 bits
Scan type : Progressive
Bits/(Pixel*Frame) : 0.100
Stream size : 3.05 GiB (92%)
Language : English
Default : Yes
Forced : No
Color range : Limited
Color primaries : BT.709
Transfer characteristics : BT.709
Matrix coefficients : BT.709
Audio #1
ID : 2
Format : AC-3
Format/Info : Audio Coding 3
Commercial name : Dolby Digital
Codec ID : A_AC3
Duration : 1 h 28 min
Bit rate mode : Constant
Bit rate : 224 kb/s
Channel(s) : 2 channels
Channel layout : L R
Sampling rate : 48.0 kHz
Frame rate : 31.250 FPS (1536 SPF)
Compression mode : Lossy
Stream size : 141 MiB (4%)
Title : ViruseProject
Language : Russian
Service kind : Complete Main
Default : No
Forced : No
Audio #2
ID : 3
Format : AC-3
Format/Info : Audio Coding 3
Commercial name : Dolby Digital
Codec ID : A_AC3
Duration : 1 h 28 min
Bit rate mode : Constant
Bit rate : 224 kb/s
Channel(s) : 2 channels
Channel layout : L R
Sampling rate : 48.0 kHz
Frame rate : 31.250 FPS (1536 SPF)
Compression mode : Lossy
Stream size : 141 MiB (4%)
Language : English
Service kind : Complete Main
Default : No
Forced : No
Text
ID : 4
Format : UTF-8
Codec ID : S_TEXT/UTF8
Codec ID/Info : UTF-8 Plain Text
Duration : 1 h 25 min
Bit rate : 63 b/s
Count of elements : 1154
Stream size : 39.8 KiB (0%)
Title : ViruseProject
Language : Russian
Default : No
Forced : No
Скриншоты:
Все одноименные релизы в КлубеВремя раздачи: мультитрекерная раздача
[Профиль] [ЛС]
Показать сообщения:    
Ответить на тему

Текущее время: 29-Фев 12:29

Часовой пояс: UTC ± 0



Вы не можете начинать темы
Вы не можете отвечать на сообщения
Вы не можете редактировать свои сообщения
Вы не можете удалять свои сообщения
Вы не можете голосовать в опросах
Вы не можете прикреплять файлы к сообщениям
Вы не можете скачивать файлы

[  Время выполнения: 0,035 сек  |  MySQL: 0,004 сек (11%) · 3 запр.  |  GZIP выкл  |  Память: 422,29 KB / 1,74 MB / 1,34 MB  |  Лимит: 15 16 15  ]