Коллектив / The Collective (2023) WEB-DLRip [MVO] [AD]

Ответить на тему
 
Автор Сообщение

admin ®

Пол: Не указан

Стаж: 4 месяца 27 дня

Сообщений: 10110

Создавать темы 30-Янв-2024 17:10

[Цитировать]

Коллектив / The Collective (2023) WEB-DLRip - Производство: США / Yale Productions, Dawn's Light
Жанр: боевик
Режиссер: Том ДеНуччи
Актеры: Руби Роуз, Дон Джонсон, Лукас Тилл, Пол Бен-Виктор, Мерседес Кестнер-Варнадо, Тайриз Гибсон, Джон Фиоре, Джулия Терранова, Дэвид Мэрчент, Левон Панек и др.
Описание:
Сэм Алекзандр - молодой рекрут таинственного агентства убийц на своем первом задании выходит на след опасной группы торговцев людьми, которую возглавляет жестокий босс - Миро Ланделл. Миро хочет продать человека, который слишком много знает и теперь Сэму надо спасти заложника и убить Миро…
Релиз от: ViruseProject
Продолжительность: 01:28:13
Качество видео: WEB-DLRip
Перевод: Профессиональный двухголосый (ViruseProject)
Язык озвучки: Русский, английский
Субтитры: Русские (отдельно)
Реклама: Присутствуют видео, аудио вставки рекламы
Видео: XviD, 720x400 (16:9), ~1490 Kbps
Аудио 1: AC3, 2 ch, 192 Kbps - русский
Аудио 2: AC3, 2 ch, 192 Kbps - английский

MediaInfo:

General
Complete name : The.Collective.2023.400p.WEB-DLRip.ViruseProject.avi
Format : AVI
Format/Info : Audio Video Interleave
File size : 1.16 GiB
Duration : 1 h 28 min
Overall bit rate : 1 885 kb/s
Writing application : VirtualDubMod 1.5.10.2 (build 2540/release)
Writing library : VirtualDubMod build 2540/release
Video
ID : 0
Format : MPEG-4 Visual
Format profile : Advanced Simple@L5
Format settings : BVOP3
Format settings, BVOP : 3
Format settings, QPel : No
Format settings, GMC : No warppoints
Format settings, Matrix : Default (H.263)
Codec ID : XVID
Codec ID/Hint : XviD
Duration : 1 h 28 min
Bit rate : 1 490 kb/s
Width : 720 pixels
Height : 400 pixels
Display aspect ratio : 16:9
Frame rate : 23.976 (24000/1001) FPS
Color space : YUV
Chroma subsampling : 4:2:0
Bit depth : 8 bits
Scan type : Progressive
Compression mode : Lossy
Bits/(Pixel*Frame) : 0.216
Stream size : 940 MiB (79%)
Writing library : XviD 69
Audio #1
ID : 1
Format : AC-3
Format/Info : Audio Coding 3
Commercial name : Dolby Digital
Codec ID : 2000
Duration : 1 h 28 min
Bit rate mode : Constant
Bit rate : 192 kb/s
Channel(s) : 2 channels
Channel layout : L R
Sampling rate : 48.0 kHz
Frame rate : 31.250 FPS (1536 SPF)
Compression mode : Lossy
Stream size : 121 MiB (10%)
Alignment : Split across interleaves
Interleave, duration : 42 ms (1.00 video frame)
Interleave, preload duration : 500 ms
Service kind : Complete Main
Audio #2
ID : 2
Format : AC-3
Format/Info : Audio Coding 3
Commercial name : Dolby Digital
Codec ID : 2000
Duration : 1 h 28 min
Bit rate mode : Constant
Bit rate : 192 kb/s
Channel(s) : 2 channels
Channel layout : L R
Sampling rate : 48.0 kHz
Frame rate : 31.250 FPS (1536 SPF)
Bit depth : 16 bits
Compression mode : Lossy
Stream size : 121 MiB (10%)
Alignment : Aligned on interleaves
Interleave, duration : 160 ms (3.84 video frames)
Interleave, preload duration : 640 ms
Service kind : Complete Main
Скриншоты:
Все одноименные релизы в КлубеВремя раздачи: мультитрекерная раздача
[Профиль] [ЛС]
Показать сообщения:    
Ответить на тему

Текущее время: 25-Фев 19:14

Часовой пояс: UTC ± 0



Вы не можете начинать темы
Вы не можете отвечать на сообщения
Вы не можете редактировать свои сообщения
Вы не можете удалять свои сообщения
Вы не можете голосовать в опросах
Вы не можете прикреплять файлы к сообщениям
Вы не можете скачивать файлы

[  Время выполнения: 0,037 сек  |  MySQL: 0,003 сек (8%) · 3 запр.  |  GZIP выкл  |  Память: 422,29 KB / 1,74 MB / 1,34 MB  |  Лимит: 15 16 17  ]