Король и Шут: Сказка о Горшке и Князе (2023) WEBRip [H.264/1080p]

Ответить на тему
 
Автор Сообщение

admin ®

Пол: Не указан

Стаж: 5 месяца

Сообщений: 10110

Создавать темы 30-Янв-2024 17:10

[Цитировать]

Король и Шут: Сказка о Горшке и Князе (2023) WEBRip [H.264/1080p] - Производство: Россия / Лунапарк, Лига Фильм, Плюс Студия
Жанр: фэнтези
Режиссер: Рустам Мосафир
Актеры: Константин Плотников, Влад Коноплёв, Валери Зоидова, Вера Вольт, Дарья Мельникова, Александр Клюквин, Александр Адабашьян, Филипп Дьячков, Алексей Фаддеев, Елена Соломина
Описание:
Два трубадура Горшок и Князь хотят стать королевскими менестрелями и вызываются на поиски пропавшей Принцессы. Храбрецы отправляются за ней прямиком в дремучий лес, полный смертельных опасностей. Им предстоит встреча с загадочным Лесником, проклятым Горбуном, обворожительной Феей Мух, огромным страшным зверем и Колдуном. Выдержит ли дружба Горшка и Князя столько испытаний?
Возраст: 18+ (зрителям, достигшим 18 лет. запрещено для детей)
Релиз от: SOFCJ
Продолжительность: ~01:44:04
Качество видео: WEBRip
Субтитры: отсутствуют
Видео: AVC/H.264, 1920x960, 6000 kbps
Аудио 1: Е-AC3, 6 ch, 448 Kbps
Аудио 2: Е-AC3, 6 ch, 448 Kbps (без цензуры, 18+)

MediaInfo:

Complete name : Король.и.Шут.Сказка.о.Горшке.и.Князе.WEB-DL.KP.H264.1080p-SOFCJ.mkv
Format : Matroska
Format version : Version 2
File size : 4.98 GiB
Duration : 1 h 44 min
Overall bit rate : 6 853 kb/s
Frame rate : 25.000 FPS
Movie name : Король.и.Шут.Сказка.о.Горшке.и.Князе.WEB-DL.KP.H264.1080p-SOFCJ
Encoded date : 2023-08-07 06:27:24 UTC
Writing application : mkvmerge v43.0.0 ('The Quartermaster') 64-bit
Writing library : libebml v1.3.10 + libmatroska v1.5.2
Cover : Yes
Attachments : cover.jpg
Video
ID : 1
Format : AVC
Format/Info : Advanced Video Codec
Format profile : Progressive High@L4
Format settings : CABAC / 4 Ref Frames
Format settings, CABAC : Yes
Format settings, Reference : 4 frames
Codec ID : V_MPEG4/ISO/AVC
Duration : 1 h 44 min
Bit rate : 6 000 kb/s
Width : 1 920 pixels
Height : 960 pixels
Display aspect ratio : 2.000
Frame rate mode : Constant
Frame rate : 25.000 FPS
Color space : YUV
Chroma subsampling : 4:2:0
Bit depth : 8 bits
Scan type : Progressive
Bits/(Pixel*Frame) : 0.130
Stream size : 4.33 GiB (87%)
Title : [WEB-DL KP by SOFCJ]
Writing library : x264 core 157
Encoding settings : cabac=1 / ref=4 / deblock=1:0:0 / analyse=0x3:0x133 / me=umh / subme=10 / psy=1 / psy_rd=1.00:0.00 / mixed_ref=1 / me_range=24 / chroma_me=1 / trellis=2 / 8x8dct=1 / cqm=0 / deadzone=21,11 / fast_pskip=1 / chroma_qp_offset=-2 / threads=30 / lookahead_threads=5 / sliced_threads=0 / nr=0 / decimate=1 / interlaced=0 / bluray_compat=0 / stitchable=1 / constrained_intra=0 / bframes=8 / b_pyramid=2 / b_adapt=2 / b_bias=0 / direct=3 / weightb=1 / open_gop=0 / weightp=2 / keyint=250 / keyint_min=25 / scenecut=40 / intra_refresh=0 / rc_lookahead=60 / rc=2pass / mbtree=1 / bitrate=6000 / ratetol=1.0 / qcomp=0.60 / qpmin=0 / qpmax=69 / qpstep=4 / cplxblur=20.0 / qblur=0.5 / vbv_maxrate=6600 / vbv_bufsize=12000 / nal_hrd=none / filler=0 / ip_ratio=1.40 / aq=1:1.00
Language : Russian
Default : Yes
Forced : No
Color range : Limited
Color primaries : BT.709
Matrix coefficients : BT.709
Audio #1
ID : 2
Format : E-AC-3
Format/Info : Enhanced AC-3
Commercial name : Dolby Digital Plus
Codec ID : A_EAC3
Duration : 1 h 44 min
Bit rate mode : Constant
Bit rate : 448 kb/s
Channel(s) : 6 channels
Channel layout : L R C LFE Ls Rs
Sampling rate : 48.0 kHz
Frame rate : 31.250 FPS (1536 SPF)
Compression mode : Lossy
Stream size : 333 MiB (7%)
Title : С Цензурой
Language : Russian
Service kind : Complete Main
Default : Yes
Forced : No
Audio #2
ID : 3
Format : E-AC-3
Format/Info : Enhanced AC-3
Commercial name : Dolby Digital Plus
Codec ID : A_EAC3
Duration : 1 h 44 min
Bit rate mode : Constant
Bit rate : 448 kb/s
Channel(s) : 6 channels
Channel layout : L R C LFE Ls Rs
Sampling rate : 48.0 kHz
Frame rate : 31.250 FPS (1536 SPF)
Compression mode : Lossy
Stream size : 333 MiB (7%)
Title : Без цензуры (18+)
Language : Russian
Service kind : Complete Main
Default : No
Forced : No
Скриншоты:
Все одноименные релизы в КлубеВремя раздачи: 24/7 (мультитрекер)
[Профиль] [ЛС]
Показать сообщения:    
Ответить на тему

Текущее время: 28-Фев 21:45

Часовой пояс: UTC ± 0



Вы не можете начинать темы
Вы не можете отвечать на сообщения
Вы не можете редактировать свои сообщения
Вы не можете удалять свои сообщения
Вы не можете голосовать в опросах
Вы не можете прикреплять файлы к сообщениям
Вы не можете скачивать файлы

[  Время выполнения: 0,038 сек  |  MySQL: 0,003 сек (9%) · 5 запр.  |  GZIP выкл  |  Память: 422,29 KB / 1,73 MB / 1,34 MB  |  Лимит: 15 15 15  ]