Злые соседи / Angry Neighbors (2022) WEBRip [H.264/1080p]

Ответить на тему
 
Автор Сообщение

admin ®

Пол: Не указан

Стаж: 4 месяца 27 дня

Сообщений: 10110

Создавать темы 30-Янв-2024 17:10

[Цитировать]

Злые соседи / Angry Neighbors (2022) WEBRip [H.264/1080p] - Производство: США / Winter State Entertainment, Kerry Orent Company, AimForKnowledge
Жанр: комедия
Режиссер: Уоррен Брок
Продюсер: Рути Остин, Warren Brock, Nicholas Hagen
Актеры: Фрэнк Ланджелла, Стокард Ченнинг, Кэти Паркер, Джаред Гилман, Стелио Саванте, Чич Марин, Эшли Бенсон, Бобби Каннавале, Крис Харрис, Тодд Рэндолл
Описание:
Гарри — пожилой ворчливый писатель, живущий со своей собакой. Его жизнь была идеальной, пока загадочный сосед не решил построить себе огромный особняк. Все мы сталкивались по жизни с тем, что соседи затевают капитальный ремонт. Вот и Гарри становится невольным заложником такой ситуации. Сумеет ли Гарри совладать с собой или все же его месть соседу станет блюдом, которое подают холодным?
Возраст: 16+ (зрителям, достигшим 16 лет)
Рейтинг MPAA: R (лицам до 17 лет обязательно присутствие взрослого)
Релиз от: karfagen1975|Soft-Torrent - торрент игры программы фильмы книги скачать
Продолжительность: 01:29:26
Качество видео: WEBRip
Перевод: Дублированный (Akimbo Production)
Язык озвучки: Русский
Субтитры: Отсутствуют
Видео: AVC/H.264, 1920x1080, ~5120 Kbps
Аудио: AAC, 6 ch, 512 Kbps - Русский (DUB)

MediaInfo:

General
Unique ID : 52791309641458137863588749330637230727 (0x27B73C84FC29E5F5569D0F733A1D9287)
Complete name : Angry Neighbors (2022) WEB-DL 1080p.mkv
Format : Matroska
Format version : Version 4
File size : 3.51 GiB
Duration : 1 h 29 min
Overall bit rate : 5 625 kb/s
Encoded date : UTC 2023-08-07 09:47:35
Writing application : mkvmerge v75.0.0 ('Goliath') 64-bit
Writing library : libebml v1.4.4 + libmatroska v1.7.1
Video
ID : 1
Format : AVC
Format/Info : Advanced Video Codec
Format profile : High@L4
Format settings : CABAC / 4 Ref Frames
Format settings, CABAC : Yes
Format settings, Reference frames : 4 frames
Codec ID : V_MPEG4/ISO/AVC
Duration : 1 h 29 min
Bit rate : 5 120 kb/s
Width : 1 920 pixels
Height : 1 080 pixels
Display aspect ratio : 16:9
Frame rate mode : Constant
Frame rate : 24.000 FPS
Color space : YUV
Chroma subsampling : 4:2:0
Bit depth : 8 bits
Scan type : Progressive
Bits/(Pixel*Frame) : 0.103
Stream size : 3.19 GiB (91%)
Title : Angry Neighbors (2022) WEB-DL 1080p Soft-Torrent - торрент игры программы фильмы книги скачать
Writing library : x264 core 152 r2854 e9a5903
Encoding settings : cabac=1 / ref=3 / deblock=1:0:0 / analyse=0x3:0x113 / me=hex / subme=7 / psy=1 / psy_rd=1.00:0.00 / mixed_ref=1 / me_range=16 / chroma_me=1 / trellis=1 / 8x8dct=1 / cqm=0 / deadzone=21,11 / fast_pskip=1 / chroma_qp_offset=-2 / threads=34 / lookahead_threads=5 / sliced_threads=0 / nr=0 / decimate=1 / interlaced=0 / bluray_compat=0 / constrained_intra=0 / bframes=6 / b_pyramid=2 / b_adapt=1 / b_bias=0 / direct=1 / weightb=1 / open_gop=0 / weightp=2 / keyint=48 / keyint_min=25 / scenecut=0 / intra_refresh=0 / rc_lookahead=40 / rc=2pass / mbtree=1 / bitrate=5120 / ratetol=1.0 / qcomp=0.60 / qpmin=0 / qpmax=69 / qpstep=4 / cplxblur=20.0 / qblur=0.5 / vbv_maxrate=7680 / vbv_bufsize=20480 / nal_hrd=none / filler=0 / ip_ratio=1.40 / aq=1:1.00
Language : English
Default : Yes
Forced : No
Audio
ID : 2
Format : AAC LC
Format/Info : Advanced Audio Codec Low Complexity
Codec ID : A_AAC-2
Duration : 1 h 29 min
Bit rate : 512 kb/s
Channel(s) : 6 channels
Channel layout : C L R Ls Rs LFE
Sampling rate : 48.0 kHz
Frame rate : 46.875 FPS (1024 SPF)
Compression mode : Lossy
Stream size : 328 MiB (9%)
Title : DUB (Akimbo Production)
Language : Russian
Default : Yes
Forced : No
Скриншоты:

Дополнительные скриншоты:

Все одноименные релизы в КлубеВремя раздачи: 24/7 (круглосуточно) (минимум до появления первых 3-5 скачавших)
[Профиль] [ЛС]
Показать сообщения:    
Ответить на тему

Текущее время: 25-Фев 17:57

Часовой пояс: UTC ± 0



Вы не можете начинать темы
Вы не можете отвечать на сообщения
Вы не можете редактировать свои сообщения
Вы не можете удалять свои сообщения
Вы не можете голосовать в опросах
Вы не можете прикреплять файлы к сообщениям
Вы не можете скачивать файлы

[  Время выполнения: 0,040 сек  |  MySQL: 0,004 сек (9%) · 3 запр.  |  GZIP выкл  |  Память: 422,29 KB / 1,74 MB / 1,34 MB  |  Лимит: 8 9 9  ]