Мамой клянусь / Честный кандидат 2 / Jeongjikhan Hubo 2 / Honest Candidate 2 (2022) WEBRip [H.264/1080p] [MVO]

Ответить на тему
 
Автор Сообщение

admin ®

Пол: Не указан

Стаж: 5 месяца

Сообщений: 10110

Создавать темы 30-Янв-2024 17:10

[Цитировать]

Мамой клянусь / Честный кандидат 2 / Jeongjikhan Hubo 2 / Honest Candidate 2 (2022) WEBRip [H.264/1080p] - Производство: Корея Южная / Hong Film, Next Entertainment World, Soo Film
Жанр: комедия, фэнтези
Режиссер: Чан Ю-джон
Актеры: Ра Ми-ран, Ким Му-ёль, Юн Гён-хо, Со Хён-у, Пак Чин-джу, Юн Ду-джун, Ким Джи-сон, Ким Джэ-хва, Щин Джэ-хви, Он Джу-ван
Описание:
Врушка-конгрессмен продолжает бороться с семейным проклятьем, которое вынуждает — теперь уже её помощника — говорить только правду.
Возраст: 18+ (зрителям, достигшим 18 лет. запрещено для детей)
Релиз от: AsiaOne-Kyle
Продолжительность: 01:42:26
Качество видео: WEBRip
Перевод: Многоголосый профессиональный (Okko)
Язык озвучки: русский, корейский
Субтитры: русские
Видео: AVC/H.264, 1920x804 (2.40:1), ~5000 Kbps
Аудио 1: AC3, 6 ch, 384 Kbps - русский
Аудио 2: E-AC3, 6 ch, 384 Kbps - корейский

MediaInfo:

Общее
Уникальный идентификатор : 263302457306534574860432811012719245821 (0xC616356D1580AFDE353A536590B1F9FD)
Полное имя : G:\Jeongjikhan.hubo.2022.WEB-DL.1080p-AsiaOne-Kyle.mkv
Формат : Matroska
Версия формата : Version 4
Размер файла : 4,12 Гбайт
Продолжительность : 1 ч. 42 м.
Общий поток : 5 751 Кбит/сек
Частота кадров : 25,000 кадров/сек
Дата кодирования : 2023-08-02 21:12:29 UTC
Программа кодирования : mkvmerge v78.0 ('Running') 64-bit
Библиотека кодирования : libebml v1.4.4 + libmatroska v1.7.1
Видео
Идентификатор : 1
Формат : AVC
Формат/Информация : Advanced Video Codec
Профиль формата : High@L4
Настройки формата : CABAC / 3 Ref Frames
Параметр CABAC формата : Да
Параметр RefFrames формата : 3 кадра
Идентификатор кодека : V_MPEG4/ISO/AVC
Продолжительность : 1 ч. 42 м.
Битрейт : 5 000 Кбит/сек
Ширина : 1 920 пикселей
Высота : 804 пикселя
Соотношение сторон : 2,40:1
Режим частоты кадров : Постоянный
Частота кадров : 25,000 кадров/сек
Цветовое пространство : YUV
Субдискретизация насыщенности : 4:2:0
Битовая глубина : 8 бит
Тип развёртки : Прогрессивная
Бит/(Пиксели*Кадры) : 0.130
Размер потока : 3,56 Гбайт (87%)
Библиотека кодирования : x264 core 161 r3048 b86ae3c
Настройки программы : cabac=1 / ref=4 / deblock=1:1:1 / analyse=0x3:0x133 / me=umh / subme=9 / psy=1 / psy_rd=0.40:1.00 / mixed_ref=1 / me_range=24 / chroma_me=1 / trellis=0 / 8x8dct=1 / cqm=0 / deadzone=21,11 / fast_pskip=1 / chroma_qp_offset=-2 / threads=25 / lookahead_threads=2 / sliced_threads=0 / nr=0 / decimate=1 / interlaced=0 / bluray_compat=0 / constrained_intra=0 / bframes=8 / b_pyramid=1 / b_adapt=1 / b_bias=0 / direct=3 / weightb=1 / open_gop=0 / weightp=2 / keyint=75 / keyint_min=38 / scenecut=0 / intra_refresh=0 / rc_lookahead=30 / rc=2pass / mbtree=1 / bitrate=5000 / ratetol=1.0 / qcomp=0.80 / qpmin=1 / qpmax=69 / qpstep=4 / cplxblur=20.0 / qblur=0.5 / vbv_maxrate=7500 / vbv_bufsize=10000 / nal_hrd=none / filler=0 / ip_ratio=1.40 / aq=1:1.00
Default : Да
Forced : Нет
Цветовой диапазон : Limited
Основные цвета : BT.709
Характеристики трансфера : BT.709
Коэффициенты матрицы : BT.709
Аудио #1
Идентификатор : 2
Формат : E-AC-3
Формат/Информация : Enhanced AC-3
Коммерческое название : Dolby Digital Plus
Идентификатор кодека : A_EAC3
Продолжительность : 1 ч. 42 м.
Вид битрейта : Постоянный
Битрейт : 384 Кбит/сек
Каналы : 6 каналов
Channel layout : L R C LFE Ls Rs
Частота : 48,0 КГц
Частота кадров : 31,250 кадров/сек (1536 SPF)
Метод сжатия : С потерями
Размер потока : 281 Мбайт (7%)
Заголовок : Russian
Язык : Russian
Service kind : Complete Main
Default : Да
Forced : Нет
Аудио #2
Идентификатор : 3
Формат : E-AC-3
Формат/Информация : Enhanced AC-3
Коммерческое название : Dolby Digital Plus
Идентификатор кодека : A_EAC3
Продолжительность : 1 ч. 42 м.
Вид битрейта : Постоянный
Битрейт : 384 Кбит/сек
Каналы : 6 каналов
Channel layout : L R C LFE Ls Rs
Частота : 48,0 КГц
Частота кадров : 31,250 кадров/сек (1536 SPF)
Метод сжатия : С потерями
Размер потока : 281 Мбайт (7%)
Заголовок : Korean
Язык : Korean
Service kind : Complete Main
Default : Нет
Forced : Нет
Текст
Идентификатор : 4
Формат : UTF-8
Идентификатор кодека : S_TEXT/UTF8
Идентификатор кодека/Информация : UTF-8 Plain Text
Продолжительность : 37 м. 7 с.
Битрейт : 7 бит/сек
Частота кадров : 0,011 кадр/сек
Count of elements : 25
Размер потока : 1,92 Кбайт (0%)
Заголовок : Russian
Язык : Russian
Default : Нет
Forced : Нет
Скриншоты:
Все одноименные релизы в КлубеВремя раздачи: (мультитрекерная раздача) (минимум до появления первых 3-5 скачавших)
[Профиль] [ЛС]
Показать сообщения:    
Ответить на тему

Текущее время: 28-Фев 22:25

Часовой пояс: UTC ± 0



Вы не можете начинать темы
Вы не можете отвечать на сообщения
Вы не можете редактировать свои сообщения
Вы не можете удалять свои сообщения
Вы не можете голосовать в опросах
Вы не можете прикреплять файлы к сообщениям
Вы не можете скачивать файлы

[  Время выполнения: 0,044 сек  |  MySQL: 0,005 сек (11%) · 5 запр.  |  GZIP выкл  |  Память: 422,29 KB / 1,74 MB / 1,36 MB  |  Лимит: 10 13 16  ]