Трое лишних / Tre di troppo (2023) WEB-DLRip [MVO]

Ответить на тему
 
Автор Сообщение

admin ®

Пол: Не указан

Стаж: 4 месяца 27 дня

Сообщений: 10110

Создавать темы 30-Янв-2024 17:09

[Цитировать]

Трое лишних / Tre di troppo (2023) WEB-DLRip - Производство: Италия / Alfred Film S.r.l., Colorado Film Production
Жанр: мелодрама, комедия
Режиссер: Фабио Де Луиджи
Актеры: Барбара Чичиарелли, Фабио Де Луиджи, Фабио Бальсамо, Вирджиния Раффаэле, Марина Рокко, Марко Колао, Martina Cavazzana, Беатрис Стелла, Грета Санти, Донато Альтомаре
Описание:
Марко и Джулия — семейная пара, которая довольна счастливой жизнью и не планирует отягощать себя различными заботами, включая рождение детей. Их негативное отношение к детям выливается в постоянные подшучивания над друзьями, Анной и ее партнером Карлом, которые тратят много сил и времени на воспитание потомства. На следующее утро после вечеринки с лучшими друзьями, испорченной неуместными заявлениями Марко и Джулии, главные герои просыпаются в полностью преображенном доме и обнаруживают, что они невероятным образом стали родителями троих детей. Супружеская пара отчаянно хочет вернуться к своей прежней жизни, но сперва им предстоит понять, как справиться с тремя сорванцами…
Релиз от: Alexandr
Продолжительность: 01:48:13
Качество видео: WEB-DLRip
Перевод: Многоголосый любительский (AlphaProject)
Язык озвучки: русский
Субтитры: отсутствуют
Видео: Xvid, 720x304 (2.35:1), ~1730 Kbps
Аудио: AC3, 2 ch, 192 Kbps - русский

MediaInfo:

Общее
Полное имя : D:\Tre di troppo (2023).by.Alexandr.avi
Формат : AVI
Формат/Информация : Audio Video Interleave
Профиль формата : OpenDML
Настройки формата : BitmapInfoHeader / WaveFormatEx
Размер файла : 1,46 Гбайт
Продолжительность : 1 ч. 48 м.
Общий поток : 1 932 Кбит/сек
Частота кадров : 23,976 кадра/сек
Программа кодирования : Lavf58.45.100
Видео
Идентификатор : 0
Формат : MPEG-4 Visual
Профиль формата : Advanced Simple@L5
Настройки формата : BVOP2
Параметр BVOP формата : 2
Параметр QPel формата : Нет
Параметр GMC формата : Без точки перехода
Параметр матрицы формата : Default (MPEG)
Идентификатор кодека : XVID
Идентификатор кодека/Подсказка : XviD
Продолжительность : 1 ч. 48 м.
Битрейт : 1 728 Кбит/сек
Ширина : 720 пикселей
Высота : 304 пикселя
Соотношение сторон : 2,35:1
Частота кадров : 23,976 (24000/1001) кадра/сек
Цветовое пространство : YUV
Субдискретизация насыщенности : 4:2:0
Битовая глубина : 8 бит
Тип развёртки : Прогрессивная
Метод сжатия : С потерями
Бит/(Пиксели*Кадры) : 0.329
Размер потока : 1,31 Гбайт (89%)
Библиотека кодирования : XviD 69
Аудио
Идентификатор : 1
Формат : AC-3
Формат/Информация : Audio Coding 3
Коммерческое название : Dolby Digital
Идентификатор кодека : 2000
Продолжительность : 1 ч. 48 м.
Вид битрейта : Постоянный
Битрейт : 192 Кбит/сек
Каналы : 2 канала
Channel layout : L R
Частота : 48,0 КГц
Частота кадров : 31,250 кадров/сек (1536 SPF)
Битовая глубина : 16 бит
Метод сжатия : С потерями
Размер потока : 149 Мбайт (10%)
Выравнивание : Соединение по промежуткам
Продолжительность промежутка : 32 мс. (0,77 видеокадр)
Service kind : Complete Main
Скриншоты:
Все одноименные релизы в КлубеВремя раздачи: 24/7 (круглосуточно) (минимум до появления первых 3-5 скачавших)
[Профиль] [ЛС]
Показать сообщения:    
Ответить на тему

Текущее время: 25-Фев 18:23

Часовой пояс: UTC ± 0



Вы не можете начинать темы
Вы не можете отвечать на сообщения
Вы не можете редактировать свои сообщения
Вы не можете удалять свои сообщения
Вы не можете голосовать в опросах
Вы не можете прикреплять файлы к сообщениям
Вы не можете скачивать файлы

[  Время выполнения: 0,037 сек  |  MySQL: 0,003 сек (7%) · 3 запр.  |  GZIP выкл  |  Память: 422,29 KB / 1,74 MB / 1,34 MB  |  Лимит: 16 16 13  ]