Безумная поездочка / Joy Ride (2023) WEB-DL [H.264/1080p] [MVO]

Ответить на тему
 
Автор Сообщение

admin ®

Пол: Не указан

Стаж: 4 месяца 27 дня

Сообщений: 10110

Создавать темы 30-Янв-2024 17:09

[Цитировать]

Безумная поездочка / Joy Ride (2023) WEB-DL [H.264/1080p]- Производство: США, Великобритания / Lionsgate, Point Grey Pictures
Жанр: комедия
Режиссер: Аделе Лим
Актеры: Эшли Пак, Шерри Кола, Стефани Сюй, Сабрина Ву, Дэбби Фэн, Кеннет Лью, Энни Мумоло, Дэвид Денман, Belle Zhang, Lennon Yee
Описание:
Когда деловая поездка Одри в Пекин превращается в катастрофу, девушка обращается за помощью к своим подругам: харизматичной Лоло, яркой звезде «мыльных опер» Кэт, и кузине-кейпоперше Лоло.
Возраст: 16+ (зрителям, достигшим 16 лет)
Рейтинг MPAA: R (лицам до 17 лет обязательно присутствие взрослого)
Продолжительность: 01:34:48
Качество видео: WEB-DL (1080p)
Перевод: Многоголосый профессиональный (HDRezka Studio)
Субтитры: Русские (forced (HDRezka)), английские
Видео: AVC/H.264, 1920x800, ~8696 Kbps
Аудио #1: AC3, 6 ch, 448 Kbps - Русский (HDRezka Studio)
Аудио #2: AC3, 6 ch, 448 Kbps - Русский (HDRezka Studio 18+)
Аудио #3: E-AC3 JOC, 6 ch, 768 Kbps - Английский

MediaInfo:

Общее
Уникальный идентификатор : 248832160138681368565574657806995018687 (0xBB3354B1858787C049198E89E40BD3BF)
Полное имя : D:\NNM\Безумная поездочка\Joy.Ride.2023.1080p.AMZN_от New-Team_JNS82.mkv
Формат : Matroska
Версия формата : Version 4
Размер файла : 6,86 Гбайт
Продолжительность : 1 ч. 34 м.
Общий поток : 10,4 Мбит/сек
Название фильма : Joy.Ride.2023.1080p.AMZN_от New-Team_JNS82
Дата кодирования : UTC 2023-08-02 04:24:52
Программа кодирования : mkvmerge v59.0.0 ('Shining Star') 64-bit
Библиотека кодирования : libebml v1.4.2 + libmatroska v1.6.4
Видео
Идентификатор : 1
Формат : AVC
Формат/Информация : Advanced Video Codec
Профиль формата : High@L4
Настройки формата : CABAC / 4 Ref Frames
Параметр CABAC формата : Да
Параметр RefFrames формата : 4 кадра
Идентификатор кодека : V_MPEG4/ISO/AVC
Продолжительность : 1 ч. 34 м.
Вид битрейта : Постоянный
Битрейт : 8 696 Кбит/сек
Номинальный битрейт : 10 000 Кбит/сек
Ширина : 1 920 пикселей
Высота : 800 пикселей
Соотношение сторон : 2,40:1
Режим частоты кадров : Постоянный
Частота кадров : 23,976 (24000/1001) кадра/сек
Цветовое пространство : YUV
Субдискретизация насыщенности : 4:2:0
Битовая глубина : 8 бит
Тип развёртки : Прогрессивная
Бит/(Пиксели*Кадры) : 0.236
Размер потока : 5,76 Гбайт (84%)
Заголовок : NT
Язык : English
Default : Да
Forced : Нет
Цветовой диапазон : Limited
Основные цвета : BT.709
Характеристики трансфера : BT.709
Коэффициенты матрицы : BT.709
Аудио #1
Идентификатор : 2
Формат : AC-3
Формат/Информация : Audio Coding 3
Коммерческое название : Dolby Digital
Идентификатор кодека : A_AC3
Продолжительность : 1 ч. 34 м.
Вид битрейта : Постоянный
Битрейт : 448 Кбит/сек
Каналы : 6 каналов
Channel layout : L R C LFE Ls Rs
Частота : 48,0 КГц
Частота кадров : 31,250 кадров/сек (1536 SPF)
Метод сжатия : С потерями
Размер потока : 304 Мбайт (4%)
Заголовок : MVO - HDRezka Studio
Язык : Russian
Service kind : Complete Main
Default : Да
Forced : Нет
Аудио #2
Идентификатор : 3
Формат : AC-3
Формат/Информация : Audio Coding 3
Коммерческое название : Dolby Digital
Идентификатор кодека : A_AC3
Продолжительность : 1 ч. 34 м.
Вид битрейта : Постоянный
Битрейт : 448 Кбит/сек
Каналы : 6 каналов
Channel layout : L R C LFE Ls Rs
Частота : 48,0 КГц
Частота кадров : 31,250 кадров/сек (1536 SPF)
Метод сжатия : С потерями
Размер потока : 304 Мбайт (4%)
Заголовок : MVO - HDRezka Studio | 18 +
Язык : Russian
Service kind : Complete Main
Default : Нет
Forced : Нет
Аудио #3
Идентификатор : 4
Формат : E-AC-3 JOC
Формат/Информация : Enhanced AC-3 with Joint Object Coding
Коммерческое название : Dolby Digital Plus with Dolby Atmos
Идентификатор кодека : A_EAC3
Продолжительность : 1 ч. 34 м.
Вид битрейта : Постоянный
Битрейт : 768 Кбит/сек
Каналы : 6 каналов
Channel layout : L R C LFE Ls Rs
Частота : 48,0 КГц
Частота кадров : 31,250 кадров/сек (1536 SPF)
Метод сжатия : С потерями
Размер потока : 521 Мбайт (7%)
Заголовок : Original
Язык : English
Service kind : Complete Main
Default : Нет
Forced : Нет
Complexity index : 16
Number of dynamic objects : 15
Bed channel count : 1 канал
Bed channel configuration : LFE
Текст #1
Идентификатор : 5
Формат : UTF-8
Идентификатор кодека : S_TEXT/UTF8
Идентификатор кодека/Информация : UTF-8 Plain Text
Продолжительность : 1 ч. 25 м.
Битрейт : 14 бит/сек
Count of elements : 184
Размер потока : 8,92 Кбайт (0%)
Заголовок : [forced [HDRezka]]
Язык : Russian
Default : Да
Forced : Нет
Текст #2
Идентификатор : 6
Формат : UTF-8
Идентификатор кодека : S_TEXT/UTF8
Идентификатор кодека/Информация : UTF-8 Plain Text
Продолжительность : 1 ч. 30 м.
Битрейт : 94 бит/сек
Count of elements : 1960
Размер потока : 62,3 Кбайт (0%)
Заголовок : [full]
Язык : English
Default : Нет
Forced : Нет
Текст #3
Идентификатор : 7
Формат : UTF-8
Идентификатор кодека : S_TEXT/UTF8
Идентификатор кодека/Информация : UTF-8 Plain Text
Продолжительность : 1 ч. 31 м.
Битрейт : 110 бит/сек
Count of elements : 2230
Размер потока : 73,4 Кбайт (0%)
Заголовок : [SDH]
Язык : English
Default : Нет
Forced : Нет
Меню
00:00:00.020 : Chapter 01
00:02:23.204 : Chapter 02
00:15:00.378 : Chapter 03
00:28:34.734 : Chapter 04
00:41:50.071 : Chapter 05
00:56:01.589 : Chapter 06
01:06:22.419 : Chapter 07
01:18:51.710 : Chapter 08
01:28:05.764 : Chapter 09
Скриншоты: Все одноименные релизы в КлубеВремя раздачи: 24/7 (до 10-ти скачавших)
[Профиль] [ЛС]
Показать сообщения:    
Ответить на тему

Текущее время: 25-Фев 22:28

Часовой пояс: UTC ± 0



Вы не можете начинать темы
Вы не можете отвечать на сообщения
Вы не можете редактировать свои сообщения
Вы не можете удалять свои сообщения
Вы не можете голосовать в опросах
Вы не можете прикреплять файлы к сообщениям
Вы не можете скачивать файлы

[  Время выполнения: 0,048 сек  |  MySQL: 0,004 сек (7%) · 3 запр.  |  GZIP выкл  |  Память: 422,29 KB / 1,75 MB / 1,37 MB  |  Лимит: 9 10 12  ]