Город грешников / Bad City (2022) WEB-DL [H.264/1080p] [MVO]

Ответить на тему
 
Автор Сообщение

admin ®

Пол: Не указан

Стаж: 4 месяца 27 дня

Сообщений: 10110

Создавать темы 30-Янв-2024 17:09

[Цитировать]

Город грешников / Bad City (2022) WEB-DL [H.264/1080p]- Производство: Япония
Жанр: боевик, криминал, детектив
Режиссер: Кэнсукэ Сономура
Продюсер: Хитоси Одзава, Юсукэ Судзуки, Рёдзи Кобаяси
Актеры: Хитоси Одзава, Аканэ Саканоуэ, Масанори Мимото, Кацуя, Мицу Дан, Ёсиюки Ямагути, Рино Катасэ, Рири Фрэнки, Масая Като, Так Сакагути
Описание:
В поглощенном преступностью городе живут не по закону, а по понятиям. Когда, в очередной раз выкрутившись в суде, коррумпированный бизнесмен Ватару Годзё решает баллотироваться в мэры, прокурор по УДО выпускает из тюрьмы мотающего срок за убийство бывшего полицейского Макото Тораду. Его задача — возглавить секретную опергруппу из сотрудников убойного отдела и любым способом добиться ареста обнаглевшего Годзё.
Возраст: 18+ (зрителям, достигшим 18 лет. запрещено для детей)
Релиз от: ExKinoRay
Продолжительность: 01:58:05
Качество видео: WEB-DL
Перевод: Многоголосый профессиональный (Кипарис)
Язык озвучки: Русский, японский
Субтитры: английские (Full, SDH)
Видео: AVC/H.264, 1920x816, ~8 815 Kbps
Аудио 1: AC3, 6 ch, 448 Kbps - Русский
Аудио 2: E-AC3, 6 ch, 640 Kbps - Японский

MediaInfo:

Общее
Уникальный идентификатор : 244058422816823650022897635318649084285 (0xB79BF14599FA034882E7F4263DC4597D)
Полное имя : G:\Bad.City.2022.1080p.AMZN.WEB-DL.ExKinoRay.mkv
Формат : Matroska
Версия формата : Version 4
Размер файла : 6,11 Гбайт
Продолжительность : 1 ч. 58 м.
Общий поток : 7 411 Кбит/сек
Частота кадров : 23,976 кадра/сек
Название фильма : Bad City (2022)
Дата кодирования : 2023-05-05 03:51:41 UTC
Программа кодирования : mkvmerge v74.0.0 ('You Oughta Know') 64-bit
Библиотека кодирования : libebml v1.4.4 + libmatroska v1.7.1
IsTruncated : Yes
Видео
Идентификатор : 1
Формат : AVC
Формат/Информация : Advanced Video Codec
Профиль формата : High@L4
Настройки формата : CABAC / 4 Ref Frames
Параметр CABAC формата : Да
Параметр RefFrames формата : 4 кадра
Идентификатор кодека : V_MPEG4/ISO/AVC
Продолжительность : 1 ч. 58 м.
Вид битрейта : Постоянный
Битрейт : 8 814 Кбит/сек
Номинальный битрейт : 10 000 Кбит/сек
Ширина : 1 920 пикселей
Высота : 816 пикселей
Соотношение сторон : 2,35:1
Режим частоты кадров : Постоянный
Частота кадров : 23,976 (24000/1001) кадра/сек
Цветовое пространство : YUV
Субдискретизация насыщенности : 4:2:0
Битовая глубина : 8 бит
Тип развёртки : Прогрессивная
Бит/(Пиксели*Кадры) : 0.164
Размер потока : 5,09 Гбайт (83%)
Язык : Japanese (JP)
Default : Да
Forced : Нет
Цветовой диапазон : Limited
Основные цвета : BT.709
Характеристики трансфера : BT.709
Коэффициенты матрицы : BT.709
Аудио #1
Идентификатор : 2
Формат : AC-3
Формат/Информация : Audio Coding 3
Коммерческое название : Dolby Digital
Идентификатор кодека : A_AC3
Продолжительность : 1 ч. 58 м.
Вид битрейта : Постоянный
Битрейт : 448 Кбит/сек
Каналы : 6 каналов
Channel layout : L R C LFE Ls Rs
Частота : 48,0 КГц
Частота кадров : 31,250 кадров/сек (1536 SPF)
Метод сжатия : С потерями
Размер потока : 378 Мбайт (6%)
Заголовок : MVO | Kiparis
Язык : Russian
Service kind : Complete Main
Default : Да
Forced : Нет
Аудио #2
Идентификатор : 3
Формат : E-AC-3
Формат/Информация : Enhanced AC-3
Коммерческое название : Dolby Digital Plus
Идентификатор кодека : A_EAC3
Продолжительность : 1 ч. 58 м.
Вид битрейта : Постоянный
Битрейт : 640 Кбит/сек
Каналы : 6 каналов
Channel layout : L R C LFE Ls Rs
Частота : 48,0 КГц
Частота кадров : 31,250 кадров/сек (1536 SPF)
Метод сжатия : С потерями
Размер потока : 541 Мбайт (9%)
Заголовок : Original
Язык : Japanese
Service kind : Complete Main
Default : Нет
Forced : Нет
Текст #1
Идентификатор : 4
Формат : UTF-8
Идентификатор кодека : S_TEXT/UTF8
Идентификатор кодека/Информация : UTF-8 Plain Text
Заголовок : Full
Язык : English (US)
Default : Нет
Forced : Нет
Текст #2
Идентификатор : 5
Формат : UTF-8
Идентификатор кодека : S_TEXT/UTF8
Идентификатор кодека/Информация : UTF-8 Plain Text
Заголовок : SDH
Язык : English (US)
Default : Нет
Forced : Нет
Скриншоты:
Все одноименные релизы в КлубеВремя раздачи: 24/7 (круглосуточно) (минимум до появления первых 3-5 скачавших)
[Профиль] [ЛС]
Показать сообщения:    
Ответить на тему

Текущее время: 25-Фев 22:41

Часовой пояс: UTC ± 0



Вы не можете начинать темы
Вы не можете отвечать на сообщения
Вы не можете редактировать свои сообщения
Вы не можете удалять свои сообщения
Вы не можете голосовать в опросах
Вы не можете прикреплять файлы к сообщениям
Вы не можете скачивать файлы

[  Время выполнения: 0,043 сек  |  MySQL: 0,005 сек (11%) · 5 запр.  |  GZIP выкл  |  Память: 422,29 KB / 1,74 MB / 1,37 MB  |  Лимит: 7 8 10  ]