Влюблён без памяти / Cest mon homme / Loving Memories (2022) WEBRip [H.264/1080p]

Ответить на тему
 
Автор Сообщение

admin ®

Пол: Не указан

Стаж: 5 месяца 1 день

Сообщений: 10110

Создавать темы 30-Янв-2024 17:09

[Цитировать]

Влюблён без памяти / C'est mon homme / Loving Memories (2022) WEBRip [H.264/1080p]«Чей он мужчина?»- Производство: Франция, Бельгия / Avenue B Productions, Frakas Productions, Radio Télévision Belge Francophone (RTBF)
Жанр: драма
Режиссер: Гийом Бюро
Продюсер: Каролина Бонмаршан, Жан-Ив Рубен, Ксения Сулима
Актеры: Лейла Бехти, Карим Леклу, Луиз Бургуэн, Жан-Шарль Клише, Гислен де Фонклер, Вероника Ружжиа, Джинн Коэнди, Эммануэль Шаафф, Северин Робик, Aliénor Schreder
Описание:
Первая мировая война, тысячи пропадают без вести. Но Жюли верит, что ее муж жив. Спустя три года в газете ей попадается фото бродяги, страдающего амнезией. Это точно он — думает она, и всеми силами она пытается разжечь в любимом прежнюю страсть. И кажется, чувства возвращаются. Пока однажды на пороге не появляется другая женщина, которая утверждает, что это ее мужчина.
Возраст: 16+ (зрителям, достигшим 16 лет)
Релиз от: karfagen1975|Soft-Torrent - торрент игры программы фильмы книги скачать
Продолжительность: 01:28:20
Качество видео: WEBRip
Перевод: Дублированный (Pride Production)
Язык озвучки: Русский, Французский
Субтитры: Русские (forced, hardsub-на песни), русские (full)
Видео: AVC/H.264, 1920x810, ~5120 Kbps
Аудио 1: AAC, 6 ch, 512 Kbps - Русский (DUB)
Аудио 2: AAC, 6 ch, 512 Kbps - Французский

MediaInfo:

General
Unique ID : 17488489707457298568905344906959052053 (0xD28291D2529D91622DDA15357A0DD15)
Complete name : Loving Memories (2022) WEB-DL 1080p Soft-Torrent - торрент игры программы фильмы книги скачать.mkv
Format : Matroska
Format version : Version 4
File size : 3.78 GiB
Duration : 1 h 28 min
Overall bit rate : 6 132 kb/s
Encoded date : UTC 2023-08-04 21:46:17
Writing application : mkvmerge v75.0.0 ('Goliath') 64-bit
Writing library : libebml v1.4.4 + libmatroska v1.7.1
Video
ID : 1
Format : AVC
Format/Info : Advanced Video Codec
Format profile : High@L4
Format settings : CABAC / 4 Ref Frames
Format settings, CABAC : Yes
Format settings, Reference frames : 4 frames
Codec ID : V_MPEG4/ISO/AVC
Duration : 1 h 28 min
Bit rate : 5 120 kb/s
Width : 1 920 pixels
Height : 810 pixels
Display aspect ratio : 2.40:1
Frame rate mode : Constant
Frame rate : 24.000 FPS
Color space : YUV
Chroma subsampling : 4:2:0
Bit depth : 8 bits
Scan type : Progressive
Bits/(Pixel*Frame) : 0.137
Stream size : 3.15 GiB (83%)
Title : Loving Memories (2022) WEB-DL 1080p Soft-Torrent - торрент игры программы фильмы книги скачать
Writing library : x264 core 152 r2854 e9a5903
Encoding settings : cabac=1 / ref=3 / deblock=1:0:0 / analyse=0x3:0x113 / me=hex / subme=7 / psy=1 / psy_rd=1.00:0.00 / mixed_ref=1 / me_range=16 / chroma_me=1 / trellis=1 / 8x8dct=1 / cqm=0 / deadzone=21,11 / fast_pskip=1 / chroma_qp_offset=-2 / threads=24 / lookahead_threads=4 / sliced_threads=0 / nr=0 / decimate=1 / interlaced=0 / bluray_compat=0 / constrained_intra=0 / bframes=6 / b_pyramid=2 / b_adapt=1 / b_bias=0 / direct=1 / weightb=1 / open_gop=0 / weightp=2 / keyint=48 / keyint_min=25 / scenecut=0 / intra_refresh=0 / rc_lookahead=40 / rc=2pass / mbtree=1 / bitrate=5120 / ratetol=1.0 / qcomp=0.60 / qpmin=0 / qpmax=69 / qpstep=4 / cplxblur=20.0 / qblur=0.5 / vbv_maxrate=7680 / vbv_bufsize=20480 / nal_hrd=none / filler=0 / ip_ratio=1.40 / aq=1:1.00
Language : French
Default : Yes
Forced : No
Audio #1
ID : 2
Format : AAC LC
Format/Info : Advanced Audio Codec Low Complexity
Codec ID : A_AAC-2
Duration : 1 h 28 min
Bit rate : 512 kb/s
Channel(s) : 6 channels
Channel layout : C L R Ls Rs LFE
Sampling rate : 48.0 kHz
Frame rate : 46.875 FPS (1024 SPF)
Compression mode : Lossy
Stream size : 323 MiB (8%)
Title : DUB (Pride Production)
Language : Russian
Default : No
Forced : No
Audio #2
ID : 3
Format : AAC LC
Format/Info : Advanced Audio Codec Low Complexity
Codec ID : A_AAC-2
Duration : 1 h 28 min
Bit rate : 512 kb/s
Channel(s) : 6 channels
Channel layout : C L R Ls Rs LFE
Sampling rate : 48.0 kHz
Frame rate : 46.875 FPS (1024 SPF)
Compression mode : Lossy
Stream size : 323 MiB (8%)
Language : French
Default : No
Forced : No
Text
ID : 4
Format : UTF-8
Codec ID : S_TEXT/UTF8
Codec ID/Info : UTF-8 Plain Text
Duration : 1 h 22 min
Bit rate : 40 b/s
Count of elements : 669
Stream size : 24.4 KiB (0%)
Title : FULL
Language : Russian
Default : No
Forced : No
Скриншоты:

Дополнительные скриншоты:

Все одноименные релизы в КлубеВремя раздачи: 24/7 (круглосуточно) (минимум до появления первых 3-5 скачавших)
[Профиль] [ЛС]
Показать сообщения:    
Ответить на тему

Текущее время: 29-Фев 13:08

Часовой пояс: UTC ± 0



Вы не можете начинать темы
Вы не можете отвечать на сообщения
Вы не можете редактировать свои сообщения
Вы не можете удалять свои сообщения
Вы не можете голосовать в опросах
Вы не можете прикреплять файлы к сообщениям
Вы не можете скачивать файлы

[  Время выполнения: 0,029 сек  |  MySQL: 0,003 сек (10%) · 3 запр.  |  GZIP выкл  |  Память: 422,29 KB / 1,73 MB / 1,35 MB  |  Лимит: 14 16 17  ]