Исходная точка / Volkov Origin (2022) WEB-DLRip [H.264/1080p-LQ] [MVO] [AD]

Ответить на тему
 
Автор Сообщение

admin ®

Пол: Не указан

Стаж: 5 месяца

Сообщений: 10110

Создавать темы 30-Янв-2024 17:09

[Цитировать]

Исходная точка / Volkov Origin (2022) WEB-DLRip [H.264/1080p-LQ]- Производство: США / Elysium Productions
Жанр: триллер
Режиссер: Джордж Диббл
Актеры: Уэс Джонсон, Джина Джун, Сюзанн Р. Нефф, Jane Chua, Майкл Дж. Паттерсон, Richard Siegelman, Кевин Тан, Чарльз Д. Кларк, Gemma McIlhenny, Wes Lee Nedig
Описание:
Доктор Анджела Перкинс получает новое задание: исследовать внутренний мир самого загадочного обитателя тюрьмы Хортон-Хаус. Ослеплённый в детстве своим отцом-садистом, мальчик, а теперь уже взрослый мужчина, Андрей Волков, рассказывает доктору историю своей жизни.
Дата мировой премьеры: March 28, 2023
Продолжительность: 01:21:11
Качество видео: WEB-DL
Перевод: Многоголосый профессиональный (Синема УС)
Субтитры: Отсутствуют
Реклама: Присутствует баннер.
Видео: AVC/H.264, 1920x816, ~6128 Kbps
Аудио: AC3, 2 ch, 384 Kbps

MediaInfo:

Общее
Уникальный идентификатор : 188554964435918268463880899723799786922 (0x8DDA5D7EDC8138BE89EA6CCD0B2F75AA)
Полное имя : D:\NNM\Исходная точка\Volkov.Origin.2022.WEB-DL.1080p.mkv
Формат : Matroska
Версия формата : Version 4
Размер файла : 3,77 Гбайт
Продолжительность : 1 ч. 21 м.
Режим общего битрейта : Постоянный
Общий поток : 6 645 Кбит/сек
Дата кодирования : UTC 2023-08-05 01:08:41
Программа кодирования : mkvmerge v6.9.1 ('Blue Panther') 32bit built on Apr 18 2014 18:15:44
Библиотека кодирования : libebml v1.3.0 + libmatroska v1.4.1
Видео
Идентификатор : 1
Формат : AVC
Формат/Информация : Advanced Video Codec
Профиль формата : High@L4.1
Настройки формата : CABAC / 4 Ref Frames
Параметр CABAC формата : Да
Параметр RefFrames формата : 4 кадра
Идентификатор кодека : V_MPEG4/ISO/AVC
Продолжительность : 1 ч. 21 м.
Вид битрейта : Постоянный
Битрейт : 6 128 Кбит/сек
Номинальный битрейт : 7 000 Кбит/сек
Ширина : 1 920 пикселей
Высота : 816 пикселей
Соотношение сторон : 2,35:1
Режим частоты кадров : Постоянный
Частота кадров : 25,000 кадров/сек
Стандарт вещания : Component
Цветовое пространство : YUV
Субдискретизация насыщенности : 4:2:0
Битовая глубина : 8 бит
Тип развёртки : Прогрессивная
Бит/(Пиксели*Кадры) : 0.156
Размер потока : 3,48 Гбайт (92%)
Default : Нет
Forced : Нет
Цветовой диапазон : Limited
Основные цвета : BT.709
Характеристики трансфера : BT.709
Коэффициенты матрицы : BT.709
Аудио
Идентификатор : 2
Формат : AC-3
Формат/Информация : Audio Coding 3
Коммерческое название : Dolby Digital
Идентификатор кодека : A_AC3
Продолжительность : 1 ч. 21 м.
Вид битрейта : Постоянный
Битрейт : 384 Кбит/сек
Каналы : 2 канала
Channel layout : L R
Частота : 48,0 КГц
Частота кадров : 31,250 кадров/сек (1536 SPF)
Метод сжатия : С потерями
Размер потока : 223 Мбайт (6%)
Язык : Russian
Service kind : Complete Main
Default : Да
Forced : Нет
Скриншоты: Все одноименные релизы в КлубеВремя раздачи: 24/7 (до 10-ти скачавших)
[Профиль] [ЛС]
Показать сообщения:    
Ответить на тему

Текущее время: 29-Фев 10:51

Часовой пояс: UTC ± 0



Вы не можете начинать темы
Вы не можете отвечать на сообщения
Вы не можете редактировать свои сообщения
Вы не можете удалять свои сообщения
Вы не можете голосовать в опросах
Вы не можете прикреплять файлы к сообщениям
Вы не можете скачивать файлы

[  Время выполнения: 0,044 сек  |  MySQL: 0,004 сек (10%) · 5 запр.  |  GZIP выкл  |  Память: 422,29 KB / 1,73 MB / 1,34 MB  |  Лимит: 12 11 11  ]