Зомби-апокалипсис и список из 100 дел, что я выполню перед смертью / Zom 100: Zombie ni Naru made ni Shitai 100 no Koto / Zom 100: Bucket List of the Dead (2023) WEB-DL [H.264/1080p] [MVO]

Ответить на тему
 
Автор Сообщение

admin ®

Пол: Не указан

Стаж: 6 месяца 22 дня

Сообщений: 11520

Создавать темы 30-Янв-2024 17:08

[Цитировать]

Зомби-апокалипсис и список из 100 дел, что я выполню перед смертью / Zom 100: Zombie ni Naru made ni Shitai 100 no Koto / Zom 100: Bucket List of the Dead (2023) WEB-DL [H.264/1080p] - Производство: Япония, Robot Communications
Жанр: ужасы, комедия, боевик
Режиссер: Юсукэ Исида
Актеры: Эйдзи Акасо, Маи Сираиси, Сюнтаро Янаги, Кадзуки Китамура, Акари Хаями, Юи Итикава, Дорондзу Исимото, Мивако Какэи, Маё Кавасаки, Мука Накамура
Описание:
Когда начинается зомби-апокалипсис, обычный офисный трудоголик вне себя от счастья, что больше не надо ходить на ненавистную работу, составляет список из 100 дел, которые давно мечтал воплотить в жизнь.
Релиз от: JNS82
Продолжительность: 02:09:19
Качество видео: WEB-DL
Перевод: Многоголосый профессиональный (HDRezka Studio)
Язык озвучки: русский, японский
Субтитры: русские (forced (HDRezka), full) английские
Видео: AVC/H.264, 1920x1080 (16:9), ~5000 Kbps
Аудио 1: AC3, 6 ch, 448 Kbps - русский
Аудио 2: E-AC3, 6 ch, 768 Kbps - японский

MediaInfo:

General
Unique ID : 336416054235961005277462364071411711488 (0xFD1760113516CE1599549F89AAB9FE00)
Complete name : E:TorrentsZom.100.Bucket.List.of.the.Dead.2023.1080p.NF_от New-Team_JNS82.mkv
Format : Matroska
Format version : Version 4
File size : 5.56 GiB
Duration : 2 h 9 min
Overall bit rate mode : Variable
Overall bit rate : 6 160 kb/s
Movie name : Zom.100.Bucket.List.of.the.Dead.2023.1080p.NF_от New-Team_JNS82
Encoded date : UTC 2023-08-05 07:20:44
Writing application : mkvmerge v59.0.0 ('Shining Star') 64-bit
Writing library : libebml v1.4.2 + libmatroska v1.6.4
Video
ID : 1
Format : AVC
Format/Info : Advanced Video Codec
Format profile : Main@L4
Format settings : CABAC / 3 Ref Frames
Format settings, CABAC : Yes
Format settings, Reference : 3 frames
Codec ID : V_MPEG4/ISO/AVC
Duration : 2 h 9 min
Bit rate mode : Variable
Bit rate : 5 000 kb/s
Maximum bit rate : 7 500 kb/s
Width : 1 920 pixels
Height : 1 080 pixels
Display aspect ratio : 16:9
Frame rate mode : Constant
Frame rate : 24.000 FPS
Color space : YUV
Chroma subsampling : 4:2:0
Bit depth : 8 bits
Scan type : Progressive
Bits/(Pixel*Frame) : 0.100
Stream size : 4.47 GiB (80%)
Writing library : x264 core 148 r2727 7d026e8
Encoding settings : cabac=1 / ref=3 / deblock=1:0:0 / analyse=0x1:0x111 / me=umh / subme=10 / psy=1 / psy_rd=1.00:0.00 / mixed_ref=1 / me_range=24 / chroma_me=1 / trellis=2 / 8x8dct=0 / cqm=0 / deadzone=21,11 / fast_pskip=1 / chroma_qp_offset=-2 / threads=6 / lookahead_threads=1 / sliced_threads=0 / nr=0 / decimate=1 / interlaced=0 / bluray_compat=0 / stitchable=1 / constrained_intra=0 / bframes=2 / b_pyramid=0 / b_adapt=2 / b_bias=0 / direct=3 / weightb=1 / open_gop=0 / weightp=2 / keyint=240 / keyint_min=121 / scenecut=0 / intra_refresh=0 / rc_lookahead=48 / rc=2pass / mbtree=1 / bitrate=5000 / ratetol=1.0 / qcomp=0.50 / qpmin=6 / qpmax=51 / qpstep=4 / cplxblur=20.0 / qblur=0.5 / vbv_maxrate=7500 / vbv_bufsize=10000 / nal_hrd=vbr / filler=0 / ip_ratio=1.40 / aq=1:1.00
Default : Yes
Forced : No
Audio #1
ID : 2
Format : AC-3
Format/Info : Audio Coding 3
Commercial name : Dolby Digital
Codec ID : A_AC3
Duration : 2 h 8 min
Bit rate mode : Constant
Bit rate : 448 kb/s
Channel(s) : 6 channels
Channel layout : L R C LFE Ls Rs
Sampling rate : 48.0 kHz
Frame rate : 31.250 FPS (1536 SPF)
Compression mode : Lossy
Stream size : 411 MiB (7%)
Title : MVO - HDRezka Studio
Language : Russian
Service kind : Complete Main
Default : Yes
Forced : No
Audio #2
ID : 3
Format : E-AC-3 JOC
Format/Info : Enhanced AC-3 with Joint Object Coding
Commercial name : Dolby Digital Plus with Dolby Atmos
Codec ID : A_EAC3
Duration : 2 h 8 min
Bit rate mode : Constant
Bit rate : 768 kb/s
Channel(s) : 6 channels
Channel layout : L R C LFE Ls Rs
Sampling rate : 48.0 kHz
Frame rate : 31.250 FPS (1536 SPF)
Compression mode : Lossy
Stream size : 705 MiB (12%)
Title : Original
Language : Japanese
Service kind : Complete Main
Default : No
Forced : No
Complexity index : 16
Number of dynamic objects : 15
Bed channel count : 1 channel
Bed channel configuration : LFE
Text #1
ID : 4
Format : UTF-8
Codec ID : S_TEXT/UTF8
Codec ID/Info : UTF-8 Plain Text
Duration : 2 h 0 min
Bit rate : 3 b/s
Count of elements : 69
Stream size : 3.07 KiB (0%)
Title : [forced [HDRezka]]
Language : Russian
Default : Yes
Forced : No
Text #2
ID : 5
Format : UTF-8
Codec ID : S_TEXT/UTF8
Codec ID/Info : UTF-8 Plain Text
Duration : 2 h 7 min
Bit rate : 48 b/s
Count of elements : 1200
Stream size : 45.0 KiB (0%)
Title : [full]
Language : Russian
Default : No
Forced : No
Text #3
ID : 6
Format : UTF-8
Codec ID : S_TEXT/UTF8
Codec ID/Info : UTF-8 Plain Text
Duration : 2 h 1 min
Bit rate : 40 b/s
Count of elements : 1295
Stream size : 36.5 KiB (0%)
Title : [full]
Language : English
Default : No
Forced : No
Text #4
ID : 7
Format : UTF-8
Codec ID : S_TEXT/UTF8
Codec ID/Info : UTF-8 Plain Text
Duration : 2 h 7 min
Bit rate : 53 b/s
Count of elements : 1747
Stream size : 49.8 KiB (0%)
Title : [SDH]
Language : English
Default : No
Forced : No
Menu
00:00:00.000 : Part 01
02:08:03.450 : Credits
Скриншоты:
Все одноименные релизы в КлубеВремя раздачи: (мультитрекерная раздача) (минимум до появления первых 3-5 скачавших)
[Профиль] [ЛС]
Показать сообщения:    
Ответить на тему

Текущее время: 20-Апр 20:46

Часовой пояс: UTC ± 0



Вы не можете начинать темы
Вы не можете отвечать на сообщения
Вы не можете редактировать свои сообщения
Вы не можете удалять свои сообщения
Вы не можете голосовать в опросах
Вы не можете прикреплять файлы к сообщениям
Вы не можете скачивать файлы

[  Время выполнения: 0,044 сек  |  MySQL: 0,005 сек (12%) · 3 запр.  |  GZIP выкл  |  Память: 422,29 KB / 1,74 MB / 1,34 MB  |  Лимит: 7 7 7  ]