Аманда / Amanda (2022) WEBRip [H.264/720p] [MVO]

Ответить на тему
 
Автор Сообщение

admin ®

Пол: Не указан

Стаж: 5 месяца

Сообщений: 10110

Создавать темы 30-Янв-2024 17:07

[Цитировать]

Аманда / Amanda (2022) WEBRip [H.264/720p] - Производство: Италия, Франция / Charades, Elsinore Film, Film Commission Regione Piemonte, I Wonder Pictures
Жанр: комедия, мелодрама
Режиссер: Каролина Кавалли
Актеры: Бенедетта Поркароли, Галатея Беллуджи, Джованна Меццоджорно, Микеле Брави, Моника Наппо, Анастасия Ахвледиани, Раффаэлла Антинуччи, Моника Авезани, Roberto Bicci, Amelia Elisabetta Biuso
Описание:
24-летняя Аманда живет в своем мире. Она ищет себя, друзей, копит баллы в супермаркете и почти не снимает свою вязаную жилетку. Вспомнив, что, будучи детьми, она и Ребекка проводили много времени вместе, Аманда выбирает для себя миссию — убедить ее, что они по-прежнему лучшие друзья.
Релиз от: Alexandr
Продолжительность: 01:30:30
Качество видео: WEBRip
Перевод: Многоголосый любительский (Синема УС)
Язык озвучки: русский
Субтитры: отсутствуют
Видео: AVC/H.264, 1280x720 (16:9), ~3525 Kbps
Аудио: AC3, 2 ch, 192 Kbps - русский

MediaInfo:

Общее
Уникальный идентификатор : 211060972681018881780027621100615490541 (0x9EC8DD5F74A309D412EA234145CDDBED)
Полное имя : D:\1\Amanda (2022).by.Alexandr.mkv
Формат : Matroska
Версия формата : Version 4
Размер файла : 2,35 Гбайт
Продолжительность : 1 ч. 30 м.
Общий поток : 3 721 Кбит/сек
Частота кадров : 25,000 кадров/сек
Название фильма : Amanda (2022).by.Alexandr
Дата кодирования : 2023-08-06 10:03:03 UTC
Программа кодирования : mkvmerge v26.0.0 ('In The Game') 32-bit
Библиотека кодирования : libebml v1.3.6 + libmatroska v1.4.9 / Lavf58.12.100
Видео
Идентификатор : 1
Формат : AVC
Формат/Информация : Advanced Video Codec
Профиль формата : Main@L3.1
Настройки формата : CABAC / 1 Ref Frames
Параметр CABAC формата : Да
Параметр RefFrames формата : 1 кадр
Параметр GOP формата : M=1, N=25
Идентификатор кодека : V_MPEG4/ISO/AVC
Продолжительность : 1 ч. 30 м.
Битрейт : 3 527 Кбит/сек
Ширина : 1 280 пикселей
Высота : 720 пикселей
Соотношение сторон : 16:9
Режим частоты кадров : Постоянный
Частота кадров : 25,000 кадров/сек
Цветовое пространство : YUV
Субдискретизация насыщенности : 4:2:0
Битовая глубина : 8 бит
Тип развёртки : Прогрессивная
Бит/(Пиксели*Кадры) : 0.153
Размер потока : 2,23 Гбайт (95%)
Default : Да
Forced : Нет
Аудио
Идентификатор : 2
Формат : AC-3
Формат/Информация : Audio Coding 3
Коммерческое название : Dolby Digital
Идентификатор кодека : A_AC3
Продолжительность : 1 ч. 30 м.
Вид битрейта : Постоянный
Битрейт : 192 Кбит/сек
Каналы : 2 канала
Channel layout : L R
Частота : 48,0 КГц
Частота кадров : 31,250 кадров/сек (1536 SPF)
Метод сжатия : С потерями
Задержка видео : -5 мс.
Размер потока : 124 Мбайт (5%)
Service kind : Complete Main
Default : Да
Forced : Нет
Скриншоты:
Все одноименные релизы в КлубеВремя раздачи: 24/7 (круглосуточно) (минимум до появления первых 3-5 скачавших)
[Профиль] [ЛС]
Показать сообщения:    
Ответить на тему

Текущее время: 29-Фев 10:44

Часовой пояс: UTC ± 0



Вы не можете начинать темы
Вы не можете отвечать на сообщения
Вы не можете редактировать свои сообщения
Вы не можете удалять свои сообщения
Вы не можете голосовать в опросах
Вы не можете прикреплять файлы к сообщениям
Вы не можете скачивать файлы

[  Время выполнения: 0,035 сек  |  MySQL: 0,003 сек (9%) · 3 запр.  |  GZIP выкл  |  Память: 422,29 KB / 1,74 MB / 1,34 MB  |  Лимит: 13 12 11  ]