По блуждающим тропам / Sur les chemins noirs / On the Wandering Paths (2023) WEBRip [H.264/720p] [MVO]

Ответить на тему
 
Автор Сообщение

admin ®

Пол: Не указан

Стаж: 4 месяца 27 дня

Сообщений: 10110

Создавать темы 30-Янв-2024 16:07

[Цитировать]

По блуждающим тропам / Sur les chemins noirs / On the Wandering Paths (2023) WEBRip [H.264/720p]- Производство: Франция / La Production Dujardin, TF1 Studio, Apollo Films, Echo Studio
Жанр: драма
Режиссер: Дени Имбер
Актеры: Жан Дюжарден, Жозефин Жапи, Изиа Ижлен, Анни Дюпере, Жонатан Заккаи, Дилан Робер, Оливье Шарассон, Лу Шовен, Мари-Кристин Барро, Ив Сервьер
Описание:
По автобиографической книге Сильвена Тессона. Пьер — известный писатель. Один несчастный случай - падение с фасада здания, погружает его в глубокую кому. Вернувшись к жизни на больничной койке, вопреки советам врачей, он дал обещание пройти по забытым тропам всю Францию пешком от Меркантура до Котантена. Этот фильм — история путешествия по возвращению своего тела.
Релиз от: Alexandr
Продолжительность: 01:33:28
Качество видео: WEBRip
Перевод: Многоголосый любительский (AlphaProject)
Субтитры: отсутствуют
Видео: AVC/H.264, 1280x534, ~3460 Kbps
Аудио: AC3, 2 ch, 192 Kbps - русский

MediaInfo:

Общее
Уникальный идентификатор : 231812521740998900795564370440672709624 (0xAE6577BBDFED8422CB1A6ACCFA130BF8)
Полное имя : D:\1\Sur les chemins noirs (2023).by.Alexandr.mkv
Формат : Matroska
Версия формата : Version 4
Размер файла : 2,38 Гбайт
Продолжительность : 1 ч. 33 м.
Общий поток : 3 652 Кбит/сек
Частота кадров : 24,000 кадра/сек
Название фильма : Sur les chemins noirs (2023).by.Alexandr
Дата кодирования : 2023-08-06 11:01:12 UTC
Программа кодирования : mkvmerge v26.0.0 ('In The Game') 32-bit
Библиотека кодирования : libebml v1.3.6 + libmatroska v1.4.9 / Lavf58.12.100
Видео
Идентификатор : 1
Формат : AVC
Формат/Информация : Advanced Video Codec
Профиль формата : Main@L3.1
Настройки формата : CABAC / 1 Ref Frames
Параметр CABAC формата : Да
Параметр RefFrames формата : 1 кадр
Параметр GOP формата : M=1, N=25
Идентификатор кодека : V_MPEG4/ISO/AVC
Продолжительность : 1 ч. 33 м.
Битрейт : 3 458 Кбит/сек
Ширина : 1 280 пикселей
Высота : 534 пикселя
Соотношение сторон : 2,40:1
Режим частоты кадров : Постоянный
Частота кадров : 24,000 кадра/сек
Цветовое пространство : YUV
Субдискретизация насыщенности : 4:2:0
Битовая глубина : 8 бит
Тип развёртки : Прогрессивная
Бит/(Пиксели*Кадры) : 0.211
Размер потока : 2,26 Гбайт (95%)
Default : Да
Forced : Нет
Аудио
Идентификатор : 2
Формат : AC-3
Формат/Информация : Audio Coding 3
Коммерческое название : Dolby Digital
Идентификатор кодека : A_AC3
Продолжительность : 1 ч. 33 м.
Вид битрейта : Постоянный
Битрейт : 192 Кбит/сек
Каналы : 2 канала
Channel layout : L R
Частота : 48,0 КГц
Частота кадров : 31,250 кадров/сек (1536 SPF)
Метод сжатия : С потерями
Задержка видео : -5 мс.
Размер потока : 128 Мбайт (5%)
Service kind : Complete Main
Default : Да
Forced : Нет
Скриншоты: Все одноименные релизы в КлубеВремя раздачи: 24/7
[Профиль] [ЛС]
Показать сообщения:    
Ответить на тему

Текущее время: 25-Фев 17:48

Часовой пояс: UTC ± 0



Вы не можете начинать темы
Вы не можете отвечать на сообщения
Вы не можете редактировать свои сообщения
Вы не можете удалять свои сообщения
Вы не можете голосовать в опросах
Вы не можете прикреплять файлы к сообщениям
Вы не можете скачивать файлы

[  Время выполнения: 0,042 сек  |  MySQL: 0,004 сек (11%) · 3 запр.  |  GZIP выкл  |  Память: 422,29 KB / 1,74 MB / 1,34 MB  |  Лимит: 9 9 9  ]