Бутч и Сандэнс / Butch vs. Sundance (2023) WEB-DLRip [H.264/1080p-LQ] [MVO] [AD]

Ответить на тему
 
Автор Сообщение

admin ®

Пол: Не указан

Стаж: 4 месяца 23 дня

Сообщений: 10110

Создавать темы 30-Янв-2024 16:07

[Цитировать]

Бутч и Сандэнс / Butch vs. Sundance (2023) WEB-DLRip [H.264/1080p-LQ] - Производство: США / The AsylumThe Global Asylum
Жанр: Вестерн
Режиссер: Энтони С. Ферранте
Актеры: Росс Джиргл, Брюс Дерн, Джилон ВанОвер, Nikki Leigh, Geoff Meed, Jeffrey Combs, Kyle McKeever, Randall Yarbrough, David Gibson, Tim Abell
Описание:
Фильм повествует о двух грабителях, Бутче и Сандэнсе, которые решили провернуть крупнейшее ограбление века.
Продолжительность: 01:37:18
Качество видео: WEB-DL
Перевод: Многоголосый профессиональный (Синема УС)
Субтитры: Отсутствуют
Реклама: Присутствует баннер.
Видео: AVC/H.264, 1920x800, ~6169 Kbps
Аудио: AC3, 2 ch, 384 Kbps

MediaInfo:

Общее
Полное имя : D:\NNM\Бутч и Сандэнс\Butch.vs.Sundance.2023.WEB-DL.1080p.mkv
Формат : Matroska
Версия формата : Version 2
Размер файла : 4,54 Гбайт
Продолжительность : 1 ч. 37 м.
Режим общего битрейта : Постоянный
Общий поток : 6 686 Кбит/сек
Программа кодирования : libmatroska 1.4.1
Библиотека кодирования : SolveigMM Matroska Muxer Version 1.0.1904.23
Видео
Идентификатор : 1
Формат : AVC
Формат/Информация : Advanced Video Codec
Профиль формата : High@L4.1
Настройки формата : CABAC / 4 Ref Frames
Параметр CABAC формата : Да
Параметр RefFrames формата : 4 кадра
Идентификатор кодека : V_MPEG4/ISO/AVC
Продолжительность : 1 ч. 37 м.
Вид битрейта : Постоянный
Битрейт : 6 169 Кбит/сек
Номинальный битрейт : 7 000 Кбит/сек
Ширина : 1 920 пикселей
Высота : 800 пикселей
Соотношение сторон : 2,40:1
Режим частоты кадров : Постоянный
Частота кадров : 23,976 (24000/1001) кадра/сек
Стандарт вещания : Component
Цветовое пространство : YUV
Субдискретизация насыщенности : 4:2:0
Битовая глубина : 8 бит
Тип развёртки : Прогрессивная
Бит/(Пиксели*Кадры) : 0.168
Размер потока : 4,19 Гбайт (92%)
Библиотека кодирования : x264 core 155
Default : Нет
Forced : Нет
Цветовой диапазон : Limited
Основные цвета : BT.709
Характеристики трансфера : BT.709
Коэффициенты матрицы : BT.709
Аудио
Идентификатор : 2
Формат : AC-3
Формат/Информация : Audio Coding 3
Коммерческое название : Dolby Digital
Идентификатор кодека : A_AC3
Продолжительность : 1 ч. 37 м.
Вид битрейта : Постоянный
Битрейт : 384 Кбит/сек
Каналы : 2 канала
Channel layout : L R
Частота : 48,0 КГц
Частота кадров : 31,250 кадров/сек (1536 SPF)
Метод сжатия : С потерями
Размер потока : 267 Мбайт (6%)
Язык : Russian
Service kind : Complete Main
Default : Нет
Forced : Нет
Скриншоты: Все одноименные релизы в КлубеВремя раздачи: 24/7 (до 10-ти скачавших)
[Профиль] [ЛС]
Показать сообщения:    
Ответить на тему

Текущее время: 22-Фев 00:57

Часовой пояс: UTC ± 0



Вы не можете начинать темы
Вы не можете отвечать на сообщения
Вы не можете редактировать свои сообщения
Вы не можете удалять свои сообщения
Вы не можете голосовать в опросах
Вы не можете прикреплять файлы к сообщениям
Вы не можете скачивать файлы

[  Время выполнения: 0,033 сек  |  MySQL: 0,002 сек (6%) · 3 запр.  |  GZIP выкл  |  Память: 421,85 KB / 1,73 MB / 1,33 MB  |  Лимит: 20 20 18  ]