Микулай (2023) WEBRip [H.264]

Ответить на тему
 
Автор Сообщение

admin ®

Пол: Не указан

Стаж: 4 месяца 27 дня

Сообщений: 10110

Создавать темы 30-Янв-2024 16:07

[Цитировать]

Микулай (2023) WEBRip [H.264]«Насколько реален твой мир?»- Производство: Россия / Проспект Мира
Жанр: триллер, драма
Режиссер: Ильшат Рахимбай
Продюсер: Ильшат Рахимбай, Анна Добронравова, Надежда Дорожкина
Актеры: Виктор Сухоруков, Иван Добронравов, Екатерина Агеева, Варвара Шмыкова, Анжелика Ермакова
Описание:
Микулай счастливо жил с молодой беременной женой, пожилыми родителями и бесконечно уважающими его односельчанами. Пока однажды в их деревушку не приехал человек, утверждавший, что он — сын Микулая. Идеальная жизнь начала трещать по швам.
Возраст: 18+ (зрителям, достигшим 18 лет. запрещено для детей)
Продолжительность: 01:49:20
Качество видео: WEBRip
Субтитры: Русские (forced, hardsub, на татарский язык)
Видео: AVC/H.264, 720x302, ~1250 Kbps
Аудио: AAC, 2 ch, 128 Kbps | Русский

MediaInfo:

Общее
Уникальный идентификатор : 231639036884621110232873231526823512664 (0xAE440E45242642E6695EBE5F7B5CCA58)
Полное имя : Микулай (2023) WEB-DLRip (720x302) AVC.mkv
Формат : Matroska
Версия формата : Version 4 / Version 2
Размер файла : 1,03 Гбайт
Продолжительность : 1 ч. 49 м.
Общий поток : 1355 Кбит/сек
Дата кодирования : UTC 2023-07-24 19:59:17
Программа кодирования : mkvmerge v56.1.0 ('My Friend') 64-bit
Библиотека кодирования : libebml v1.4.2 + libmatroska v1.6.4
Видео
Идентификатор : 1
Формат : AVC
Формат/Информация : Advanced Video Codec
Профиль формата : High@L3.1
Настройки формата : CABAC / 8 Ref Frames
Параметр CABAC формата : Да
Параметр RefFrames формата : 8 кадров
Идентификатор кодека : V_MPEG4/ISO/AVC
Продолжительность : 1 ч. 49 м.
Битрейт : 1225 Кбит/сек
Ширина : 720 пикселей
Высота : 302 пикселя
Соотношение сторон : 2,40:1
Режим частоты кадров : Постоянный
Частота кадров : 24,000 кадра/сек
Цветовое пространство : YUV
Субдискретизация насыщенности : 4:2:0
Битовая глубина : 8 бит
Тип развёртки : Прогрессивная
Бит/(Пиксели*Кадры) : 0.235
Размер потока : 958 Мбайт (90%)
Default : Да
Forced : Нет
Аудио
Идентификатор : 2
Формат : AAC
Формат/Информация : Advanced Audio Codec
Профиль формата : LC
Идентификатор кодека : A_AAC-2
Продолжительность : 1 ч. 49 м.
Битрейт : 128 Кбит/сек
Каналы : 2 канала
Расположение каналов : Front: L R
Частота : 48,0 КГц
Частота кадров : 46,875 кадров/сек (1024 SPF)
Метод сжатия : С потерями
Задержка видео : 20 мс.
Размер потока : 100 Мбайт (9%)
Язык : Russian
Default : Да
Forced : Нет

Знаете ли вы, что…

Кряшены – этноконфессиональная группа в составе татар волжского и уральского регионов, исповедуют православие. Церковная служба у них ведётся на татарском языке, православные имена тоже произносятся на татарский лад.
Изначально в фильме должен был играть только один актер, так как сценарий написан по мотивам монодрамы.
Но Тимур Бекмамбетов посоветовал режиссеру Ильшату Рахимбаю превратить его в триллер. Так герои воспоминаний старика Микулая стали полноценными персонажами.
Екатерина Агеева пыталась выучить татарский язык для своей роли.
Часть бюджета собирали на краудфандинговой платформе.
Скриншоты:
Все одноименные релизы в КлубеВремя раздачи: 24/7 (до появления 3 скачавших)
[Профиль] [ЛС]
Показать сообщения:    
Ответить на тему

Текущее время: 25-Фев 22:18

Часовой пояс: UTC ± 0



Вы не можете начинать темы
Вы не можете отвечать на сообщения
Вы не можете редактировать свои сообщения
Вы не можете удалять свои сообщения
Вы не можете голосовать в опросах
Вы не можете прикреплять файлы к сообщениям
Вы не можете скачивать файлы

[  Время выполнения: 0,038 сек  |  MySQL: 0,004 сек (10%) · 3 запр.  |  GZIP выкл  |  Память: 422,29 KB / 1,74 MB / 1,34 MB  |  Лимит: 14 14 16  ]