Сквозь время (2022) WEBRip [H.264]

Ответить на тему
 
Автор Сообщение

admin ®

Пол: Не указан

Стаж: 4 месяца 27 дня

Сообщений: 10110

Создавать темы 30-Янв-2024 16:06

[Цитировать]

Сквозь время (2022) WEBRip [H.264] - Производство: Россия, KD Studios
Жанр: фантастика, триллер, приключения
Режиссер: Александр Богуславский
Продюсер: Виктор Денисюк, Евгений Мелентьев, Александр Куринский
Актеры: Виктор Добронравов, Егор Корешков, Валерия Шкирандо, Никита Тарасов, Софья Присс, Дэниел Барнс, Егор Бероев, Платон Алексеев, Мирослав Аксёнов, Севастьян Бугаев
Описание:
В ходе испытаний сверхскоростного самолета на новом источнике энергии изобретатель и бизнесмен Итан Блэйк и его брат Джейкоб оказываются на острове, не отмеченном на картах. Там они сталкиваются с таинственным туманом, в котором существует одновременно и прошлое, и будущее. Итану предстоит встретить своего отца, найти настоящую любовь и разгадать загадку острова, чтобы предотвратить грядущую катастрофу.
Возраст: 12+ (зрителям, достигшим 12 лет)
Продолжительность: 01:40:48
Качество видео: WEBRip
Субтитры: Русские
Видео: AVC/H.264, 720x404, ~1250 Kbps
Аудио: AC3, 6 ch, 384 Kbps | Русский

MediaInfo:

Общее
Уникальный идентификатор : 249655004351563684570158422999190390253 (0xBBD1CE0B9C973D039B2BCC7C9226C5ED)
Полное имя : Сквозь время (2022) WEBRip (720x404) AVC.mkv
Формат : Matroska
Версия формата : Version 4 / Version 2
Размер файла : 1,14 Гбайт
Продолжительность : 1 ч. 40 м.
Общий поток : 1625 Кбит/сек
Название фильма : Сквозь.время.2022.WEBRip
Дата кодирования : UTC 2023-07-27 04:24:22
Программа кодирования : mkvmerge v56.1.0 ('My Friend') 64-bit
Библиотека кодирования : libebml v1.4.2 + libmatroska v1.6.4
Видео
Идентификатор : 1
Формат : AVC
Формат/Информация : Advanced Video Codec
Профиль формата : High@L3.1
Настройки формата : CABAC / 8 Ref Frames
Параметр CABAC формата : Да
Параметр RefFrames формата : 8 кадров
Идентификатор кодека : V_MPEG4/ISO/AVC
Продолжительность : 1 ч. 40 м.
Битрейт : 1239 Кбит/сек
Ширина : 720 пикселей
Высота : 404 пикселя
Соотношение сторон : 16:9
Режим частоты кадров : Постоянный
Частота кадров : 25,000 кадров/сек
Цветовое пространство : YUV
Субдискретизация насыщенности : 4:2:0
Битовая глубина : 8 бит
Тип развёртки : Прогрессивная
Бит/(Пиксели*Кадры) : 0.170
Размер потока : 893 Мбайт (76%)
Default : Да
Forced : Нет
Аудио
Идентификатор : 2
Формат : AC-3
Формат/Информация : Audio Coding 3
Параметр Endianness формата : Big
Идентификатор кодека : A_AC3
Продолжительность : 1 ч. 40 м.
Вид битрейта : Постоянный
Битрейт : 384 Кбит/сек
Каналы : 6 каналов
Расположение каналов : Front: L C R, Side: L R, LFE
Частота : 48,0 КГц
Частота кадров : 31,250 кадров/сек (1536 SPF)
Битовая глубина : 16 бит
Метод сжатия : С потерями
Размер потока : 277 Мбайт (24%)
Язык : Russian
ServiceKind/String : Complete Main
Default : Да
Forced : Нет
Текст
Идентификатор : 3
Формат : UTF-8
Идентификатор кодека : S_TEXT/UTF8
Идентификатор кодека/Информация : UTF-8 Plain Text
Продолжительность : 1 ч. 35 м.
Битрейт : 88 бит/сек
ElementCount : 924
Размер потока : 61,9 Кбайт (0%)
Заголовок : Full
Язык : Russian
Default : Да
Forced : Нет
Скриншоты:
Все одноименные релизы в КлубеВремя раздачи: 24/7 (до 3 скачавших)
[Профиль] [ЛС]
Показать сообщения:    
Ответить на тему

Текущее время: 25-Фев 22:48

Часовой пояс: UTC ± 0



Вы не можете начинать темы
Вы не можете отвечать на сообщения
Вы не можете редактировать свои сообщения
Вы не можете удалять свои сообщения
Вы не можете голосовать в опросах
Вы не можете прикреплять файлы к сообщениям
Вы не можете скачивать файлы

[  Время выполнения: 0,040 сек  |  MySQL: 0,004 сек (9%) · 3 запр.  |  GZIP выкл  |  Память: 422,29 KB / 1,74 MB / 1,34 MB  |  Лимит: 8 9 10  ]