Я на перемотке! (2022) WEBRip [H.264]

Ответить на тему
 
Автор Сообщение

admin ®

Пол: Не указан

Стаж: 6 месяца 22 дня

Сообщений: 11520

Создавать темы 30-Янв-2024 16:06

[Цитировать]

Я на перемотке! (2022) WEBRip [H.264] - Производство: Россия, Искусство для людей
Жанр: комедия, фантастика
Режиссер: Никита Владимиров
Актеры: Андрей Бурковский, Ксения Теплова, Ирина Пегова, Татьяна Догилева, Фёдор Лавров, Наталия Фиссон, Сергей Барковский, Алексей Овсянников, Татьяна Полонская, Алексей Фролов
Описание:
Максим так занят на работе, пытаясь все успеть и не подвести начальство, что не замечает самых важных вещей в своей жизни. В годовщину знакомства с любимой девушкой Сашей, после случайной ссоры с необычной таксисткой Тамарой Петровной у Максима начинают происходить совершенно необъяснимые события - ему предстоит прожить свою жизнь на перемотке.
Возраст: 12+ (зрителям, достигшим 12 лет)
Продолжительность: 01:25:07
Качество видео: WEBRip
Видео: AVC/H.264, 720x302, ~1250 Kbps
Аудио: AAC, 6 ch, 320 Kbps | Русский

MediaInfo:

Общее
Уникальный идентификатор : 129745992237630492025517247642310777240 (0x619C2B4E2A7F9071AD937DDFAF1B9998)
Полное имя : Я на перемотке! (2022) WEB-DLRip (720x302) AVC.mkv
Формат : Matroska
Версия формата : Version 4 / Version 2
Размер файла : 953 Мбайт
Продолжительность : 1 ч. 25 м.
Общий поток : 1566 Кбит/сек
Дата кодирования : UTC 2023-07-28 12:37:53
Программа кодирования : mkvmerge v56.1.0 ('My Friend') 64-bit
Библиотека кодирования : libebml v1.4.2 + libmatroska v1.6.4
Attachments : poster.jpeg
Видео
Идентификатор : 1
Формат : AVC
Формат/Информация : Advanced Video Codec
Профиль формата : High@L3.1
Настройки формата : CABAC / 8 Ref Frames
Параметр CABAC формата : Да
Параметр RefFrames формата : 8 кадров
Идентификатор кодека : V_MPEG4/ISO/AVC
Продолжительность : 1 ч. 25 м.
Битрейт : 1243 Кбит/сек
Ширина : 720 пикселей
Высота : 302 пикселя
Соотношение сторон : 2,40:1
Режим частоты кадров : Постоянный
Частота кадров : 25,000 кадров/сек
Цветовое пространство : YUV
Субдискретизация насыщенности : 4:2:0
Битовая глубина : 8 бит
Тип развёртки : Прогрессивная
Бит/(Пиксели*Кадры) : 0.229
Размер потока : 757 Мбайт (79%)
Default : Да
Forced : Нет
Аудио
Идентификатор : 2
Формат : AAC
Формат/Информация : Advanced Audio Codec
Профиль формата : LC
Идентификатор кодека : A_AAC-2
Продолжительность : 1 ч. 25 м.
Битрейт : 320 Кбит/сек
Каналы : 6 каналов
Расположение каналов : Front: L C R, Side: L R, LFE
Частота : 48,0 КГц
Частота кадров : 46,875 кадров/сек (1024 SPF)
Метод сжатия : С потерями
Задержка видео : 20 мс.
Размер потока : 195 Мбайт (20%)
Заголовок : [Original | 5.1 E-AC3 Audio]
Язык : Russian
Default : Да
Forced : Нет
Скриншоты:
Все одноименные релизы в КлубеВремя раздачи: 24/7 (до 3 скачавших)
[Профиль] [ЛС]
Показать сообщения:    
Ответить на тему

Текущее время: 20-Апр 18:44

Часовой пояс: UTC ± 0



Вы не можете начинать темы
Вы не можете отвечать на сообщения
Вы не можете редактировать свои сообщения
Вы не можете удалять свои сообщения
Вы не можете голосовать в опросах
Вы не можете прикреплять файлы к сообщениям
Вы не можете скачивать файлы

[  Время выполнения: 0,037 сек  |  MySQL: 0,005 сек (13%) · 7 запр.  |  GZIP выкл  |  Память: 422,29 KB / 1,73 MB / 1,33 MB  |  Лимит: 13 13 12  ]