Мальдивы подождут (2023) WEBRip [H.264/1080p]

Ответить на тему
 
Автор Сообщение

admin ®

Пол: Не указан

Стаж: 4 месяца 27 дня

Сообщений: 10110

Создавать темы 30-Янв-2024 16:06

[Цитировать]

Мальдивы подождут (2023) WEBRip [H.264/1080p]- Производство: Россия / International Media Company
Жанр: комедия
Режиссер: Анарио Мамедов
Продюсер: Михаил Погосов, Аргишти Алоян, Андрей Масликов
Актеры: Полина Максимова, Роман Маякин, Яна Кошкина, Роман Курцын, Максим Лагашкин, Карина Зверева, Владимир Епифанцев, Николай Наумов, Сергей Степин, Михаил Тарабукин
Описание:
Ева и Денис — молодая и успешная пара, которая неожиданно для себя оказывается в кризисной ситуации. И им бы разбираться со своими семейными обидами и недопониманиями, но они попадают в паутину невероятных приключений. В этой кутерьме событий Ева принимает решение бороться за свою любовь и берет Дениса в заложники. Вспомнит ли Денис о своих чувствах или останется «связанным» навсегда?
Возраст: 16+ (зрителям, достигшим 16 лет)
Релиз от: karfagen1975|Soft-Torrent - торрент игры программы фильмы книги скачать
Продолжительность: 01:24:38
Качество видео: WEBRip
Язык озвучки: Русский
Субтитры: Отсутствуют
Видео: AVC/H.264, 1920x1080, ~4000 Kbps
Аудио: AAC, 2 ch, 128 Kbps - Русский

MediaInfo:

General
Unique ID : 76001853760329604353105043887344689846 (0x392D6CB27E5B126972BA80F4E265A2B6)
Complete name : Мальдивы подождут (2022) WEB-DL 1080p Soft-Torrent - торрент игры программы фильмы книги скачать.mkv
Format : Matroska
Format version : Version 4
File size : 2.44 GiB
Duration : 1 h 24 min
Overall bit rate : 4 129 kb/s
Frame rate : 25.000 FPS
Encoded date : 2023-08-01 22:07:31 UTC
Writing application : mkvmerge v75.0.0 ('Goliath') 64-bit
Writing library : libebml v1.4.4 + libmatroska v1.7.1
Video
ID : 1
Format : AVC
Format/Info : Advanced Video Codec
Format profile : High@L4
Format settings : CABAC / 3 Ref Frames
Format settings, CABAC : Yes
Format settings, Reference frames : 3 frames
Codec ID : V_MPEG4/ISO/AVC
Duration : 1 h 24 min
Bit rate : 3 998 kb/s
Width : 1 920 pixels
Height : 1 080 pixels
Display aspect ratio : 16:9
Frame rate mode : Constant
Frame rate : 25.000 FPS
Color space : YUV
Chroma subsampling : 4:2:0
Bit depth : 8 bits
Scan type : Progressive
Bits/(Pixel*Frame) : 0.077
Stream size : 2.36 GiB (97%)
Title : Мальдивы подождут (2022) WEB-DL 1080p Soft-Torrent - торрент игры программы фильмы книги скачать
Language : Russian
Default : Yes
Forced : No
Audio
ID : 2
Format : AAC LC
Format/Info : Advanced Audio Codec Low Complexity
Codec ID : A_AAC-2
Duration : 1 h 24 min
Bit rate : 128 kb/s
Channel(s) : 2 channels
Channel layout : L R
Sampling rate : 48.0 kHz
Frame rate : 46.875 FPS (1024 SPF)
Compression mode : Lossy
Stream size : 77.8 MiB (3%)
Language : Russian
Default : Yes
Forced : No

Знаете ли вы, что…

Рабочее название проекта «Скотч & Виски».
Скриншоты:

Дополнительные скриншоты:


Все одноименные релизы в КлубеВремя раздачи: 24/7 (круглосуточно) (минимум до появления первых 3-5 скачавших)
[Профиль] [ЛС]
Показать сообщения:    
Ответить на тему

Текущее время: 25-Фев 17:23

Часовой пояс: UTC ± 0



Вы не можете начинать темы
Вы не можете отвечать на сообщения
Вы не можете редактировать свои сообщения
Вы не можете удалять свои сообщения
Вы не можете голосовать в опросах
Вы не можете прикреплять файлы к сообщениям
Вы не можете скачивать файлы

[  Время выполнения: 0,062 сек  |  MySQL: 0,004 сек (6%) · 3 запр.  |  GZIP выкл  |  Память: 422,29 KB / 1,73 MB / 1,34 MB  |  Лимит: 8 9 9  ]