Мальдивы подождут (2023) WEBRip [H.264]

Ответить на тему
 
Автор Сообщение

admin ®

Пол: Не указан

Стаж: 4 месяца 23 дня

Сообщений: 10110

Создавать темы 30-Янв-2024 16:06

[Цитировать]

Мальдивы подождут (2023) WEBRip [H.264]- Производство: Россия / International Media Company
Жанр: комедия
Режиссер: Анарио Мамедов
Продюсер: Михаил Погосов, Аргишти Алоян, Андрей Масликов
Актеры: Полина Максимова, Роман Маякин, Яна Кошкина, Роман Курцын, Максим Лагашкин, Карина Зверева, Владимир Епифанцев, Николай Наумов, Сергей Степин, Михаил Тарабукин
Описание:
Ева и Денис — молодая и успешная пара, которая неожиданно для себя оказывается в кризисной ситуации. И им бы разбираться со своими семейными обидами и недопониманиями, но они попадают в паутину невероятных приключений. В этой кутерьме событий Ева принимает решение бороться за свою любовь и берет Дениса в заложники. Вспомнит ли Денис о своих чувствах или останется «связанным» навсегда?
Возраст: 16+ (зрителям, достигшим 16 лет)
Продолжительность: 01:24:38
Качество видео: WEBRip
Субтитры: Отсутствуют
Видео: AVC/H.264, 720x404, ~1250 Kbps
Аудио: AAC, 2 ch, 128 Kbps | Русский

MediaInfo:

Общее
Уникальный идентификатор : 260669077951364692245583402677521276646 (0xC41B09CCBBC2C4368A2D076BE9DEDEE6)
Полное имя : Мальдивы подождут (2023) WEB-DLRip (720x404) AVC.mkv
Формат : Matroska
Версия формата : Version 4 / Version 2
Размер файла : 834 Мбайт
Продолжительность : 1 ч. 24 м.
Общий поток : 1377 Кбит/сек
Дата кодирования : UTC 2023-08-02 07:40:35
Программа кодирования : mkvmerge v56.1.0 ('My Friend') 64-bit
Библиотека кодирования : libebml v1.4.2 + libmatroska v1.6.4
Видео
Идентификатор : 1
Формат : AVC
Формат/Информация : Advanced Video Codec
Профиль формата : High@L3.1
Настройки формата : CABAC / 8 Ref Frames
Параметр CABAC формата : Да
Параметр RefFrames формата : 8 кадров
Идентификатор кодека : V_MPEG4/ISO/AVC
Продолжительность : 1 ч. 24 м.
Битрейт : 1247 Кбит/сек
Ширина : 720 пикселей
Высота : 404 пикселя
Соотношение сторон : 16:9
Режим частоты кадров : Постоянный
Частота кадров : 25,000 кадров/сек
Цветовое пространство : YUV
Субдискретизация насыщенности : 4:2:0
Битовая глубина : 8 бит
Тип развёртки : Прогрессивная
Бит/(Пиксели*Кадры) : 0.171
Размер потока : 755 Мбайт (91%)
Default : Да
Forced : Нет
Аудио
Идентификатор : 2
Формат : AAC
Формат/Информация : Advanced Audio Codec
Профиль формата : LC
Идентификатор кодека : A_AAC-2
Продолжительность : 1 ч. 24 м.
Битрейт : 128 Кбит/сек
Каналы : 2 канала
Расположение каналов : Front: L R
Частота : 48,0 КГц
Частота кадров : 46,875 кадров/сек (1024 SPF)
Метод сжатия : С потерями
Размер потока : 77,8 Мбайт (9%)
Язык : Russian
Default : Да
Forced : Нет

Знаете ли вы, что…

Рабочее название проекта «Скотч & Виски».
Скриншоты:
Все одноименные релизы в КлубеВремя раздачи: 24/7 (круглосуточно) (минимум до появления первых 3-5 скачавших)
[Профиль] [ЛС]
Показать сообщения:    
Ответить на тему

Текущее время: 22-Фев 00:19

Часовой пояс: UTC ± 0



Вы не можете начинать темы
Вы не можете отвечать на сообщения
Вы не можете редактировать свои сообщения
Вы не можете удалять свои сообщения
Вы не можете голосовать в опросах
Вы не можете прикреплять файлы к сообщениям
Вы не можете скачивать файлы

[  Время выполнения: 0,036 сек  |  MySQL: 0,004 сек (11%) · 3 запр.  |  GZIP выкл  |  Память: 421,85 KB / 1,73 MB / 1,34 MB  |  Лимит: 15 14 12  ]