Дыхание (2023) WEBRip [H.264/1080p]

Ответить на тему
 
Автор Сообщение

admin ®

Пол: Не указан

Стаж: 4 месяца 27 дня

Сообщений: 10110

Создавать темы 30-Янв-2024 16:06

[Цитировать]

Дыхание (2023) WEBRip [H.264/1080p]- Производство: Россия, START, Yellow, Black & White
Жанр: драма
Режиссер: Роман Каримов
Продюсер: Алексей Троцюк, Эдуард Илоян, Виталий Шляппо
Актеры: Антон Батырев, Ирина ГорбачёваДаниил Воробьев, Андрей Карако, Вера Шпак, Евгения Храповицкая, Дмитрий Павленко, Галина Сазонова, Сергей Лысов, Алексей Гоман
Описание:
Большие испытания открывают истинную красоту человека. Виктор — бывший врач, а ныне успешный бизнесмен — нелегально пробирается в больницу, чтобы помочь маме, заболевшей COVID-19. Рискуя жизнью и свободой, он пытается разобраться с неизвестным вирусом и вместе с медицинским коллективом готовит больницу к пандемии.
Возраст: 16+ (зрителям, достигшим 16 лет)
Релиз от: Soft-Torrent - торрент игры программы фильмы книги скачать
Продолжительность: 01:39:25
Качество видео: WEBRip
Перевод: Не требуется (Русский)
Субтитры: отсутствуют
Видео: AVC/H.264, 1920x1080, 5000 kbps
Аудио: AC3, 2 ch, 48 kHz, 256 Kbps | Русский

MediaInfo:

Общее
Уникальный идентификатор : 233642028594102686041844656041609996935 (0xAFC5D162CA69DE0486D90B75AB512A87)
Полное имя : D:\Дыхание.2023.WEBRip.[1080p].Soft-Torrent - торрент игры программы фильмы книги скачать.mkv
Формат : Matroska
Версия формата : Version 4
Размер файла : 3,57 Гбайт
Продолжительность : 1 ч. 39 м.
Общий поток : 5142 Кбит/сек
Название фильма : Дыхание.2023.WEBRip.[1080p].Soft-Torrent - торрент игры программы фильмы книги скачать
Дата кодирования : UTC 2023-08-02 21:00:55
Программа кодирования : mkvmerge v8.3.0 ('Over the Horizon') 64bit
Библиотека кодирования : libebml v1.3.1 + libmatroska v1.4.2
Видео
Идентификатор : 1
Формат : AVC
Формат/Информация : Advanced Video Codec
Профиль формата : High@L4
Настройки формата : CABAC / 4 Ref Frames
Параметр CABAC формата : Да
Параметр RefFrames формата : 4 кадра
Идентификатор кодека : V_MPEG4/ISO/AVC
Продолжительность : 1 ч. 39 м.
Битрейт : 5000 Кбит/сек
Ширина : 1920 пикселей
Высота : 1080 пикселей
Соотношение сторон : 16:9
Режим частоты кадров : Постоянный
Частота кадров : 24,000 кадра/сек
Цветовое пространство : YUV
Субдискретизация насыщенности : 4:2:0
Битовая глубина : 8 бит
Тип развёртки : Прогрессивная
Бит/(Пиксели*Кадры) : 0.100
Размер потока : 3,39 Гбайт (95%)
Библиотека кодирования : x264 core 161
Настройки программы : cabac=1 / ref=2 / deblock=1:0:0 / analyse=0x3:0x113 / me=hex / subme=6 / psy=1 / psy_rd=1.00:0.00 / mixed_ref=1 / me_range=16 / chroma_me=1 / trellis=1 / 8x8dct=1 / cqm=0 / deadzone=21,11 / fast_pskip=1 / chroma_qp_offset=-2 / threads=12 / lookahead_threads=2 / sliced_threads=0 / nr=0 / decimate=1 / interlaced=0 / bluray_compat=0 / constrained_intra=0 / bframes=3 / b_pyramid=2 / b_adapt=1 / b_bias=0 / direct=1 / weightb=1 / open_gop=0 / weightp=1 / keyint=250 / keyint_min=24 / scenecut=40 / intra_refresh=0 / rc_lookahead=30 / rc=abr / mbtree=1 / bitrate=5000 / ratetol=1.0 / qcomp=0.60 / qpmin=0 / qpmax=69 / qpstep=4 / vbv_maxrate=6000 / vbv_bufsize=12000 / nal_hrd=none / filler=0 / ip_ratio=1.40 / aq=1:1.00
Язык : Russian
Default : Да
Forced : Нет
Цветовой диапазон : Limited
Основные цвета : BT.709
Характеристики трансфера : BT.709
Коэффициенты матрицы : BT.709
Аудио
Идентификатор : 2
Формат : AC-3
Формат/Информация : Audio Coding 3
Коммерческое название : Dolby Digital
Идентификатор кодека : A_AC3
Продолжительность : 1 ч. 39 м.
Вид битрейта : Постоянный
Битрейт : 256 Кбит/сек
Каналы : 2 канала
ChannelLayout : L R
Частота : 48,0 КГц
Частота кадров : 31,250 кадров/сек (1536 SPF)
Битовая глубина : 16 бит
Метод сжатия : С потерями
Задержка видео : -83 мс.
Размер потока : 182 Мбайт (5%)
Язык : Russian
ServiceKind/String : Complete Main
Default : Да
Forced : Нет
Скриншоты:
Все одноименные релизы в КлубеВремя раздачи: 24/7 (минимум до появления первых 3-5 скачавших)
[Профиль] [ЛС]
Показать сообщения:    
Ответить на тему

Текущее время: 25-Фев 21:18

Часовой пояс: UTC ± 0



Вы не можете начинать темы
Вы не можете отвечать на сообщения
Вы не можете редактировать свои сообщения
Вы не можете удалять свои сообщения
Вы не можете голосовать в опросах
Вы не можете прикреплять файлы к сообщениям
Вы не можете скачивать файлы

[  Время выполнения: 0,045 сек  |  MySQL: 0,009 сек (20%) · 3 запр.  |  GZIP выкл  |  Память: 422,29 KB / 1,74 MB / 1,34 MB  |  Лимит: 13 13 12  ]