Дыхание (2023) WEBRip

Ответить на тему
 
Автор Сообщение

admin ®

Пол: Не указан

Стаж: 7 месяца 26 дня

Сообщений: 11520

Создавать темы 30-Янв-2024 16:06

[Цитировать]

Дыхание (2023) WEBRip - Производство: Россия / ВБД Груп
Жанр: драма, медицина
Режиссер: Роман Каримов
Продюсер: Алексей Троцюк, Эдуард Илоян, Виталий Шляппо
Актеры: Антон Батырев, Ирина Горбачёва, Даниил Воробьев, Андрей Карако, Вера Шпак, Евгения Храповицкая, Дмитрий Павленко, Галина Сазонова, Сергей Лысов, Алексей Гоман
Описание:
Виктор был хирургом когда-то, но сменил профессию: сейчас он владеет большим бизнесом и регулярно заключает многомиллионные сделки. Жизнь Виктора меняется, когда он узнает, что его мать оказалась в больнице с непонятным диагнозом. Обманным путем он попадает в закрытое отделение, где обнаруживает, что мать - не единственная, кого забрали в изолятор. Нарушая все мыслимые и немыслимые законы, рискуя своей жизнью и свободой, Виктор бросает все силы на изучение таинственного вируса, чтобы помочь врачам вылечить не только его мать, но и сотни тысяч других заболевших.
Возраст: 16+ (зрителям, достигшим 16 лет)
Релиз от: MrMittens
Продолжительность: 01:39:30
Качество видео: WEBRip
Перевод: Не требуется (русский)
Субтитры: отсутствуют
Видео: Xvid, 720x304, ~1710 Kbps
Аудио: AC3, 2 ch, 256 Kbps

MediaInfo:

Общее
Полное имя : H:\NEW FILMS 2023\Dykhaniye.2023.WEB-DLRip.MrMittens.avi
Формат : AVI
Формат/Информация : Audio Video Interleave
Размер файла : 1,37 Гбайт
Продолжительность : 1 ч. 39 м.
Общий поток : 1 976 Кбит/сек
Программа кодирования : Lavf59.16.100
Видео
Идентификатор : 0
Формат : MPEG-4 Visual
Профиль формата : Advanced Simple@L5
Настройки формата : BVOP1
Параметр BVOP формата : 1
Параметр QPel формата : Нет
Параметр GMC формата : Без точки перехода
Параметр матрицы формата : Default (H.263)
Идентификатор кодека : XVID
Идентификатор кодека/Подсказка : XviD
Продолжительность : 1 ч. 39 м.
Битрейт : 1 710 Кбит/сек
Ширина : 720 пикселей
Высота : 304 пикселя
Соотношение сторон : 2,40:1
Частота кадров : 24,000 кадра/сек
Цветовое пространство : YUV
Субдискретизация насыщенности : 4:2:0
Битовая глубина : 8 бит
Тип развёртки : Прогрессивная
Метод сжатия : С потерями
Бит/(Пиксели*Кадры) : 0.325
Размер потока : 1,19 Гбайт (87%)
Библиотека кодирования : XviD 69
Аудио
Идентификатор : 1
Формат : AC-3
Формат/Информация : Audio Coding 3
Коммерческое название : Dolby Digital
Идентификатор кодека : 2000
Продолжительность : 1 ч. 39 м.
Вид битрейта : Постоянный
Битрейт : 256 Кбит/сек
Каналы : 2 канала
Channel layout : L R
Частота : 48,0 КГц
Частота кадров : 31,250 кадров/сек (1536 SPF)
Битовая глубина : 16 бит
Метод сжатия : С потерями
Размер потока : 182 Мбайт (13%)
Выравнивание : Соединение по промежуткам
Продолжительность промежутка : 32 мс. (0,77 видеокадр)
Service kind : Complete Main
Скриншоты:
Все одноименные релизы в КлубеВремя раздачи: 24/7 - круглосуточно (минимум до появления первых 3-5 скачавших)
[Профиль] [ЛС]
Показать сообщения:    
Ответить на тему

Текущее время: 24-Май 13:14

Часовой пояс: UTC ± 0



Вы не можете начинать темы
Вы не можете отвечать на сообщения
Вы не можете редактировать свои сообщения
Вы не можете удалять свои сообщения
Вы не можете голосовать в опросах
Вы не можете прикреплять файлы к сообщениям
Вы не можете скачивать файлы

[  Время выполнения: 0,031 сек  |  MySQL: 0,004 сек (13%) · 3 запр.  |  GZIP выкл  |  Память: 422,29 KB / 1,72 MB / 1,32 MB  |  Лимит: 16 13 10  ]