Дыхание (2023) WEBRip [H.264]

Ответить на тему
 
Автор Сообщение

admin ®

Пол: Не указан

Стаж: 5 месяца

Сообщений: 10110

Создавать темы 30-Янв-2024 16:06

[Цитировать]

Дыхание (2023) WEBRip [H.264]- Производство: Россия, START, Yellow, Black & White
Жанр: драма
Режиссер: Роман Каримов
Продюсер: Алексей Троцюк, Эдуард Илоян, Виталий Шляппо
Актеры: Антон Батырев, Ирина Горбачёва, Даниил Воробьев, Андрей Карако, Вера Шпак, Евгения Храповицкая, Дмитрий Павленко, Галина Сазонова, Сергей Лысов, Алексей Гоман
Описание:
Большие испытания открывают истинную красоту человека. Виктор — бывший врач, а ныне успешный бизнесмен — нелегально пробирается в больницу, чтобы помочь маме, заболевшей COVID-19. Рискуя жизнью и свободой, он пытается разобраться с неизвестным вирусом и вместе с медицинским коллективом готовит больницу к пандемии.
Возраст: 16+ (зрителям, достигшим 16 лет)
Продолжительность: 01:39:25
Качество видео: WEBRip
Субтитры: отсутствуют
Видео: AVC/H.264, 720x302, ~1212 Kbps
Аудио: AAC, 2 ch, 128 Kbps | Русский

MediaInfo:

Общее
Уникальный идентификатор : 247640922089994214532179067977926270624 (0xBA4DE81F83CE044CFAFE5512CE815EA0)
Полное имя : Дыхание (2023) WEB-DLRip (720x302) AVC.mkv
Формат : Matroska
Версия формата : Version 4 / Version 2
Размер файла : 956 Мбайт
Продолжительность : 1 ч. 39 м.
Общий поток : 1343 Кбит/сек
Дата кодирования : UTC 2023-08-03 08:07:28
Программа кодирования : mkvmerge v56.1.0 ('My Friend') 64-bit
Библиотека кодирования : libebml v1.4.2 + libmatroska v1.6.4
Видео
Идентификатор : 1
Формат : AVC
Формат/Информация : Advanced Video Codec
Профиль формата : High@L3.1
Настройки формата : CABAC / 8 Ref Frames
Параметр CABAC формата : Да
Параметр RefFrames формата : 8 кадров
Идентификатор кодека : V_MPEG4/ISO/AVC
Продолжительность : 1 ч. 39 м.
Битрейт : 1212 Кбит/сек
Ширина : 720 пикселей
Высота : 302 пикселя
Соотношение сторон : 2,40:1
Режим частоты кадров : Постоянный
Частота кадров : 24,000 кадра/сек
Цветовое пространство : YUV
Субдискретизация насыщенности : 4:2:0
Битовая глубина : 8 бит
Тип развёртки : Прогрессивная
Бит/(Пиксели*Кадры) : 0.232
Размер потока : 863 Мбайт (90%)
Default : Да
Forced : Нет
Аудио
Идентификатор : 2
Формат : AAC
Формат/Информация : Advanced Audio Codec
Профиль формата : LC
Идентификатор кодека : A_AAC-2
Продолжительность : 1 ч. 39 м.
Битрейт : 128 Кбит/сек
Каналы : 2 канала
Расположение каналов : Front: L R
Частота : 48,0 КГц
Частота кадров : 46,875 кадров/сек (1024 SPF)
Метод сжатия : С потерями
Размер потока : 91,1 Мбайт (10%)
Язык : Russian
Default : Да
Forced : Нет
Скриншоты:
Все одноименные релизы в КлубеВремя раздачи: 24/7 (минимум до появления первых 3-5 скачавших)
[Профиль] [ЛС]
Показать сообщения:    
Ответить на тему

Текущее время: 28-Фев 22:40

Часовой пояс: UTC ± 0



Вы не можете начинать темы
Вы не можете отвечать на сообщения
Вы не можете редактировать свои сообщения
Вы не можете удалять свои сообщения
Вы не можете голосовать в опросах
Вы не можете прикреплять файлы к сообщениям
Вы не можете скачивать файлы

[  Время выполнения: 0,034 сек  |  MySQL: 0,003 сек (9%) · 3 запр.  |  GZIP выкл  |  Память: 422,29 KB / 1,73 MB / 1,33 MB  |  Лимит: 10 10 12  ]