Джонни (2023) WEBRip [H.264/1080p]

Ответить на тему
 
Автор Сообщение

admin ®

Пол: Не указан

Стаж: 4 месяца 23 дня

Сообщений: 10110

Создавать темы 30-Янв-2024 16:06

[Цитировать]

Джонни (2023) WEBRip [H.264/1080p]- Производство: Россия / Лига Фильм
Жанр: комедия, музыка
Режиссер: Алексей Рыбин
Продюсер: Игорь Гудков
Актеры: Николай Фоменко, Андрей Дидик, Светлана Бакулина, Егор Бакулин, Мария Лопатина, Максим Фролов, Алексей Фролов, Иван Жуков, Богдан Псел, Анастасия Башкирова
Описание:
Конец 1980-х. Молодой рок-музыкант сталкивается с разнообразными трудностями. Пройдя их, он остаётся собой, однако «остаться собой» означает отказаться от успеха и материальных благ.
Возраст: 16+ (зрителям, достигшим 16 лет)
Релиз от: karfagen1975|Soft-Torrent - торрент игры программы фильмы книги скачать
Продолжительность: 01:41:26
Качество видео: WEBRip
Язык озвучки: Русский
Субтитры: Отсутствуют
Видео: AVC/H.264, 1920x1080, ~6140 Kbps
Аудио: AAC, 2 ch, 128 Kbps - Русский

MediaInfo:

General
Unique ID : 45822634476056470373285780069891353653 (0x22791E4E9929E021784C4BC85436AC35)
Complete name : Джонни (2023) WEB-DL 1080p Soft-Torrent - торрент игры программы фильмы книги скачать.mkv
Format : Matroska
Format version : Version 4
File size : 4.43 GiB
Duration : 1 h 41 min
Overall bit rate : 6 247 kb/s
Frame rate : 24.000 FPS
Encoded date : 2023-08-03 09:32:09 UTC
Writing application : mkvmerge v75.0.0 ('Goliath') 64-bit
Writing library : libebml v1.4.4 + libmatroska v1.7.1
Video
ID : 1
Format : AVC
Format/Info : Advanced Video Codec
Format profile : Constrained Baseline@L4
Format settings : 2 Ref Frames
Format settings, CABAC : No
Format settings, Reference frames : 2 frames
Codec ID : V_MPEG4/ISO/AVC
Duration : 1 h 41 min
Bit rate mode : Constant
Bit rate : 6 144 kb/s
Width : 1 920 pixels
Height : 1 080 pixels
Display aspect ratio : 16:9
Frame rate mode : Constant
Frame rate : 24.000 FPS
Color space : YUV
Chroma subsampling : 4:2:0
Bit depth : 8 bits
Scan type : Progressive
Bits/(Pixel*Frame) : 0.123
Stream size : 4.33 GiB (98%)
Title : Джонни (2023) WEB-DL 1080p Soft-Torrent - торрент игры программы фильмы книги скачать
Language : Russian
Default : Yes
Forced : No
Audio
ID : 2
Format : AAC LC
Format/Info : Advanced Audio Codec Low Complexity
Codec ID : A_AAC-2
Duration : 1 h 41 min
Bit rate : 128 kb/s
Channel(s) : 2 channels
Channel layout : L R
Sampling rate : 48.0 kHz
Frame rate : 46.875 FPS (1024 SPF)
Compression mode : Lossy
Stream size : 92.9 MiB (2%)
Language : Russian
Default : Yes
Forced : No
Скриншоты:

Дополнительные скриншоты:

Все одноименные релизы в КлубеВремя раздачи: 24/7 (круглосуточно) (минимум до появления первых 3-5 скачавших)
[Профиль] [ЛС]
Показать сообщения:    
Ответить на тему

Текущее время: 22-Фев 01:20

Часовой пояс: UTC ± 0



Вы не можете начинать темы
Вы не можете отвечать на сообщения
Вы не можете редактировать свои сообщения
Вы не можете удалять свои сообщения
Вы не можете голосовать в опросах
Вы не можете прикреплять файлы к сообщениям
Вы не можете скачивать файлы

[  Время выполнения: 0,039 сек  |  MySQL: 0,004 сек (9%) · 3 запр.  |  GZIP выкл  |  Память: 421,85 KB / 1,73 MB / 1,34 MB  |  Лимит: 21 20 19  ]