Секс после брака / The End of Sex (2022) WEBRip [H.264/1080p]

Ответить на тему
 
Автор Сообщение

admin ®

Пол: Не указан

Стаж: 5 месяца

Сообщений: 10110

Создавать темы 30-Янв-2024 16:06

[Цитировать]

Секс после брака / The End of Sex (2022) WEBRip [H.264/1080p]- Производство: Канада / Vortex Productions
Жанр: мелодрама, комедия
Режиссер: Шон Гэррити
Продюсер: Джастин Ребело, Джонас Черник, Крис Жиру
Актеры: Эмили Хэмпшир, Джонас Черник, Грэй Пауэлл, Лили Гао, Мелани Скрофано, Иден Кьюпид, Эмили Уотт, Майя Мисалевич, Кимберли-Сью Мюррэй, Саманта Эспи
Описание:
Отправив своих детей на неделю в лагерь, Эмма и Джош наконец-то предоставлены сами себе и могут заниматься сексом столько, сколько им хочется. Есть только одна проблема: их больше не так сильно тянет друг к другу. Чтобы взбодрить отношения и вернуть былую искру, супруги решаются на ряд экспериментов, которые могут поставить под угрозу весь их брак.
Возраст: 18+ (зрителям, достигшим 18 лет. запрещено для детей)
Рейтинг MPAA: R (лицам до 17 лет обязательно присутствие взрослого)
Релиз от: karfagen1975|Soft-Torrent - торрент игры программы фильмы книги скачать
Продолжительность: 01:08:46
Качество видео: WEBRip
Перевод: Дублированный (Lucky Production)
Язык озвучки: Русский
Субтитры: Русские
Видео: AVC/H.264, 1920x1080, ~5120 Kbps
Аудио: AAC, 6 ch, 512 Kbps - Русский (DUB)

MediaInfo:

General
Unique ID : 191171896654584966592583764706833436499 (0x8FD25E3729FFB1DD1505752F8E378F53)
Complete name : The End of Sex (2022) WEB-DL 1080p Soft-Torrent - торрент игры программы фильмы книги скачать.mkv
Format : Matroska
Format version : Version 4
File size : 2.70 GiB
Duration : 1 h 8 min
Overall bit rate : 5 617 kb/s
Frame rate : 25.000 FPS
Encoded date : 2023-08-03 15:15:55 UTC
Writing application : mkvmerge v75.0.0 ('Goliath') 64-bit
Writing library : libebml v1.4.4 + libmatroska v1.7.1
Video
ID : 1
Format : AVC
Format/Info : Advanced Video Codec
Format profile : High@L4
Format settings : CABAC / 4 Ref Frames
Format settings, CABAC : Yes
Format settings, Reference frames : 4 frames
Codec ID : V_MPEG4/ISO/AVC
Duration : 1 h 8 min
Bit rate : 5 120 kb/s
Width : 1 920 pixels
Height : 1 080 pixels
Display aspect ratio : 16:9
Frame rate mode : Constant
Frame rate : 25.000 FPS
Color space : YUV
Chroma subsampling : 4:2:0
Bit depth : 8 bits
Scan type : Progressive
Bits/(Pixel*Frame) : 0.099
Stream size : 2.45 GiB (91%)
Title : The End of Sex (2022) WEB-DL 1080p Soft-Torrent - торрент игры программы фильмы книги скачать
Writing library : x264 core 152 r2854 e9a5903
Encoding settings : cabac=1 / ref=3 / deblock=1:0:0 / analyse=0x3:0x113 / me=hex / subme=7 / psy=1 / psy_rd=1.00:0.00 / mixed_ref=1 / me_range=16 / chroma_me=1 / trellis=1 / 8x8dct=1 / cqm=0 / deadzone=21,11 / fast_pskip=1 / chroma_qp_offset=-2 / threads=34 / lookahead_threads=5 / sliced_threads=0 / nr=0 / decimate=1 / interlaced=0 / bluray_compat=0 / constrained_intra=0 / bframes=6 / b_pyramid=2 / b_adapt=1 / b_bias=0 / direct=1 / weightb=1 / open_gop=0 / weightp=2 / keyint=50 / keyint_min=26 / scenecut=0 / intra_refresh=0 / rc_lookahead=40 / rc=2pass / mbtree=1 / bitrate=5120 / ratetol=1.0 / qcomp=0.60 / qpmin=0 / qpmax=69 / qpstep=4 / cplxblur=20.0 / qblur=0.5 / vbv_maxrate=7680 / vbv_bufsize=20480 / nal_hrd=none / filler=0 / ip_ratio=1.40 / aq=1:1.00
Language : English
Default : Yes
Forced : No
Audio
ID : 2
Format : AAC LC
Format/Info : Advanced Audio Codec Low Complexity
Codec ID : A_AAC-2
Duration : 1 h 8 min
Bit rate : 512 kb/s
Channel(s) : 6 channels
Channel layout : C L R Ls Rs LFE
Sampling rate : 48.0 kHz
Frame rate : 46.875 FPS (1024 SPF)
Compression mode : Lossy
Stream size : 252 MiB (9%)
Title : DUB (Lucky Production)
Language : Russian
Default : Yes
Forced : No
Text
ID : 3
Format : UTF-8
Codec ID : S_TEXT/UTF8
Codec ID/Info : UTF-8 Plain Text
Duration : 1 h 5 min
Bit rate : 137 b/s
Frame rate : 0.406 FPS
Count of elements : 1603
Stream size : 66.1 KiB (0%)
Title : FULL
Language : Russian
Default : No
Forced : No
Скриншоты:

Дополнительные скриншоты:


Все одноименные релизы в КлубеВремя раздачи: 24/7 (круглосуточно) (минимум до появления первых 3-5 скачавших)
[Профиль] [ЛС]
Показать сообщения:    
Ответить на тему

Текущее время: 28-Фев 23:08

Часовой пояс: UTC ± 0



Вы не можете начинать темы
Вы не можете отвечать на сообщения
Вы не можете редактировать свои сообщения
Вы не можете удалять свои сообщения
Вы не можете голосовать в опросах
Вы не можете прикреплять файлы к сообщениям
Вы не можете скачивать файлы

[  Время выполнения: 0,038 сек  |  MySQL: 0,003 сек (9%) · 3 запр.  |  GZIP выкл  |  Память: 422,29 KB / 1,75 MB / 1,37 MB  |  Лимит: 10 10 10  ]