Секс после брака / The End of Sex (2022) WEB-DL [H.264/1080p]

Ответить на тему
 
Автор Сообщение

admin ®

Пол: Не указан

Стаж: 5 месяца

Сообщений: 10110

Создавать темы 30-Янв-2024 16:05

[Цитировать]

Секс после брака / The End of Sex (2022) WEB-DL [H.264/1080p]- Производство: Канада / Vortex Productions
Жанр: мелодрама, комедия
Режиссер: Шон Гэррити
Продюсер: Джастин Ребело, Джонас Черник, Крис Жиру
Актеры: Эмили Хэмпшир, Джонас Черник, Грэй Пауэлл, Лили Гао, Мелани Скрофано, Иден Кьюпид, Эмили Уотт, Майя Мисалевич, Кимберли-Сью Мюррэй, Саманта Эспи
Описание:
Отправив своих детей на неделю в лагерь, Эмма и Джош наконец-то предоставлены сами себе и могут заниматься сексом столько, сколько им хочется. Есть только одна проблема: их больше не так сильно тянет друг к другу. Чтобы взбодрить отношения и вернуть былую искру, супруги решаются на ряд экспериментов, которые могут поставить под угрозу весь их брак.
Возраст: 18+ (зрителям, достигшим 18 лет. запрещено для детей)
Рейтинг MPAA: R (лицам до 17 лет обязательно присутствие взрослого)
Релиз от: селезень
Продолжительность: 01:08:55
Качество видео: WEB-DL
Перевод: Дублированный (Lucky Production)
Язык озвучки: Русский
Субтитры: Русские
Видео: AVC/H.264, 1920x860, ~4975 Kbps
Аудио 1: AC3, 6 ch, 384 Kbps - Русский
Аудио 2: E-AC3, 6 ch, 384 Kbps - Русский

MediaInfo:

General
Unique ID : 277956046856112823409960841004236227899 (0xD11C632BC0C977AF4C436D504A45453B)
Complete name : F:VideoFThe.End.of.Sex.WEB-DL.1080p.seleZen.mkv
Format : Matroska
Format version : Version 4
File size : 2.77 GiB
Duration : 1 h 8 min
Overall bit rate : 5 747 kb/s
Frame rate : 25.000 FPS
Movie name : The End of Sex 2022 from seleZen
Encoded date : 2023-08-03 06:26:46 UTC
Writing application : mkvmerge v77.0 ('Elemental') 64-bit
Writing library : libebml v1.4.4 + libmatroska v1.7.1
Video
ID : 1
Format : AVC
Format/Info : Advanced Video Codec
Format profile : High@L4
Format settings : CABAC / 3 Ref Frames
Format settings, CABAC : Yes
Format settings, Reference : 3 frames
Codec ID : V_MPEG4/ISO/AVC
Duration : 1 h 8 min
Bit rate : 4 977 kb/s
Width : 1 920 pixels
Height : 860 pixels
Display aspect ratio : 2.25:1
Frame rate mode : Constant
Frame rate : 25.000 FPS
Color space : YUV
Chroma subsampling : 4:2:0
Bit depth : 8 bits
Scan type : Progressive
Bits/(Pixel*Frame) : 0.121
Stream size : 2.40 GiB (87%)
Language : English
Default : Yes
Forced : No
Color range : Limited
Color primaries : BT.709
Transfer characteristics : BT.709
Matrix coefficients : BT.709
Audio #1
ID : 2
Format : AC-3
Format/Info : Audio Coding 3
Commercial name : Dolby Digital
Codec ID : A_AC3
Duration : 1 h 8 min
Bit rate mode : Constant
Bit rate : 384 kb/s
Channel(s) : 6 channels
Channel layout : L R C LFE Ls Rs
Sampling rate : 48.0 kHz
Frame rate : 31.250 FPS (1536 SPF)
Compression mode : Lossy
Stream size : 189 MiB (7%)
Language : Russian
Service kind : Complete Main
Default : Yes
Forced : Yes
Audio #2
ID : 3
Format : E-AC-3
Format/Info : Enhanced AC-3
Commercial name : Dolby Digital Plus
Codec ID : A_EAC3
Duration : 1 h 8 min
Bit rate mode : Constant
Bit rate : 384 kb/s
Channel(s) : 6 channels
Channel layout : L R C LFE Ls Rs
Sampling rate : 48.0 kHz
Frame rate : 31.250 FPS (1536 SPF)
Compression mode : Lossy
Stream size : 189 MiB (7%)
Language : Russian
Service kind : Complete Main
Default : No
Forced : No
Text
ID : 4
Format : UTF-8
Codec ID : S_TEXT/UTF8
Codec ID/Info : UTF-8 Plain Text
Duration : 1 h 5 min
Bit rate : 137 b/s
Frame rate : 0.406 FPS
Count of elements : 1603
Stream size : 66.1 KiB (0%)
Language : Russian
Default : No
Forced : No
Скриншоты:
Все одноименные релизы в КлубеВремя раздачи: 24/7 (круглосуточно) (минимум до появления первых 3-5 скачавших)
[Профиль] [ЛС]
Показать сообщения:    
Ответить на тему

Текущее время: 28-Фев 23:38

Часовой пояс: UTC ± 0



Вы не можете начинать темы
Вы не можете отвечать на сообщения
Вы не можете редактировать свои сообщения
Вы не можете удалять свои сообщения
Вы не можете голосовать в опросах
Вы не можете прикреплять файлы к сообщениям
Вы не можете скачивать файлы

[  Время выполнения: 0,033 сек  |  MySQL: 0,003 сек (9%) · 3 запр.  |  GZIP выкл  |  Память: 422,29 KB / 1,73 MB / 1,33 MB  |  Лимит: 9 9 9  ]