Голова-жестянка (2023) WEBRip [H.264/1080p]

Ответить на тему
 
Автор Сообщение

admin ®

Пол: Не указан

Стаж: 6 месяца 22 дня

Сообщений: 11520

Создавать темы 30-Янв-2024 16:05

[Цитировать]

Голова-жестянка (2023) WEBRip [H.264/1080p]- Производство: Россия / QS FILMS, Киномир, Segezha Group
Жанр: драма, комедия
Режиссер: Иван Капитонов
Продюсер: Иван Капитонов, Святослав Подгаевский, Георгий Шабанов
Актеры: Варвара Володина, Олег Чугунов, Сергей Гилев, Татьяна Яковенко, Анна Попова, Даниил Вершинин, Наталья Кудряшова, Владимир Селезнев, Юрий Ицков, Дима Мальков
Описание:
16-летняя Женя, которую все зовут Жесть, сполна оправдывает свое прозвище: жестит и разрушает отношения со всеми вокруг. Такой она стала после сотрясения мозга и травмы ноги. Теперь она хромает и видит мир далеко не в розовом цвете. В своей травме Женя винит лучшего (а теперь бывшего) друга Приходько и направляет на него весь свой гнев и искрометный цинизм. Но, кроме Приходько, достается всем: родителям, старшему брату, подругам и одноклассникам. Все меняется после знакомства с руководителем кружка робототехники Святославом, который становится наставником Жени. Взаимодействуя с роботами, она учится общению с людьми, начинает снова радоваться жизни, а главное — вновь обретает старого друга.
Возраст: 12+ (зрителям, достигшим 12 лет)
Релиз от: karfagen1975|Soft-Torrent - торрент игры программы фильмы книги скачать
Продолжительность: 01:50:49
Качество видео: WEBRip
Язык озвучки: Русский
Субтитры: Отсутствуют
Видео: AVC/H.264, 1920x1080, ~4000 Kbps
Аудио: AAC, 2 ch, 128 Kbps - Русский

MediaInfo:

General
Unique ID : 163511118748967556267380147976861246875 (0x7B0318926671D4D53D09F761C2B1E59B)
Complete name : Голова-жестянка (2023) WEB-DL 1080p Soft-Torrent - торрент игры программы фильмы книги скачать.mkv
Format : Matroska
Format version : Version 4
File size : 3.20 GiB
Duration : 1 h 50 min
Overall bit rate : 4 128 kb/s
Frame rate : 25.000 FPS
Encoded date : 2023-08-03 22:25:51 UTC
Writing application : mkvmerge v75.0.0 ('Goliath') 64-bit
Writing library : libebml v1.4.4 + libmatroska v1.7.1
Video
ID : 1
Format : AVC
Format/Info : Advanced Video Codec
Format profile : High@L4
Format settings : CABAC / 3 Ref Frames
Format settings, CABAC : Yes
Format settings, Reference frames : 3 frames
Codec ID : V_MPEG4/ISO/AVC
Duration : 1 h 50 min
Bit rate : 3 997 kb/s
Width : 1 920 pixels
Height : 1 080 pixels
Display aspect ratio : 16:9
Frame rate mode : Constant
Frame rate : 25.000 FPS
Color space : YUV
Chroma subsampling : 4:2:0
Bit depth : 8 bits
Scan type : Progressive
Bits/(Pixel*Frame) : 0.077
Stream size : 3.09 GiB (97%)
Title : Голова-жестянка (2022) WEB-DL 1080p Soft-Torrent - торрент игры программы фильмы книги скачать
Language : Russian
Default : Yes
Forced : No
Audio
ID : 2
Format : AAC LC
Format/Info : Advanced Audio Codec Low Complexity
Codec ID : A_AAC-2
Duration : 1 h 50 min
Bit rate : 128 kb/s
Channel(s) : 2 channels
Channel layout : L R
Sampling rate : 48.0 kHz
Frame rate : 46.875 FPS (1024 SPF)
Compression mode : Lossy
Stream size : 102 MiB (3%)
Language : Russian
Default : Yes
Forced : No
Скриншоты:

Дополнительные скриншоты:

Все одноименные релизы в КлубеВремя раздачи: 24/7 (круглосуточно) (минимум до появления первых 3-5 скачавших)
[Профиль] [ЛС]
Показать сообщения:    
Ответить на тему

Текущее время: 20-Апр 20:52

Часовой пояс: UTC ± 0



Вы не можете начинать темы
Вы не можете отвечать на сообщения
Вы не можете редактировать свои сообщения
Вы не можете удалять свои сообщения
Вы не можете голосовать в опросах
Вы не можете прикреплять файлы к сообщениям
Вы не можете скачивать файлы

[  Время выполнения: 0,029 сек  |  MySQL: 0,003 сек (11%) · 3 запр.  |  GZIP выкл  |  Память: 422,29 KB / 1,72 MB / 1,32 MB  |  Лимит: 6 6 6  ]