Город грешников / Bad City (2022) WEBRip [H.264/1080p]

Ответить на тему
 
Автор Сообщение

admin ®

Пол: Не указан

Стаж: 6 месяца 22 дня

Сообщений: 11520

Создавать темы 30-Янв-2024 16:05

[Цитировать]

Город грешников / Bad City (2022) WEBRip [H.264/1080p]- Производство: Япония
Жанр: боевик, криминал, детектив
Режиссер: Кэнсукэ Сономура
Продюсер: Хитоси Одзава, Юсукэ Судзуки, Рёдзи Кобаяси
Актеры: Хитоси Одзава, Аканэ Саканоуэ, Масанори Мимото, Кацуя, Мицу Дан, Ёсиюки Ямагути, Рино Катасэ, Рири Фрэнки, Масая Като, Так Сакагути
Описание:
В поглощенном преступностью городе живут не по закону, а по понятиям. Когда, в очередной раз выкрутившись в суде, коррумпированный бизнесмен Ватару Годзё решает баллотироваться в мэры, прокурор по УДО выпускает из тюрьмы мотающего срок за убийство бывшего полицейского Макото Тораду. Его задача — возглавить секретную опергруппу из сотрудников убойного отдела и любым способом добиться ареста обнаглевшего Годзё.
Возраст: 18+ (зрителям, достигшим 18 лет. запрещено для детей)
Релиз от: karfagen1975|Soft-Torrent - торрент игры программы фильмы книги скачать
Продолжительность: 01:53:09
Качество видео: WEBRip
Перевод: Многоголосый профессиональный (Кипарис)
Язык озвучки: Русский, японский
Субтитры: Русские
Видео: AVC/H.264, 1920x814, ~5120 Kbps
Аудио 1: E-AC3, 6 ch, 448 Kbps - Русский (MVO)
Аудио 2: E-AC3, 6 ch, 448 Kbps - Японский

MediaInfo:

General
Unique ID : 1174500392738765680309361038068306887 (0xE2335716856C7C6163F766E52853C7)
Complete name : Bad City (2022) WEB-DL 1080p Soft-Torrent - торрент игры программы фильмы книги скачать.mkv
Format : Matroska
Format version : Version 4
File size : 4.75 GiB
Duration : 1 h 53 min
Overall bit rate : 6 012 kb/s
Frame rate : 25.000 FPS
Encoded date : 2023-08-03 21:53:47 UTC
Writing application : mkvmerge v75.0.0 ('Goliath') 64-bit
Writing library : libebml v1.4.4 + libmatroska v1.7.1
Video
ID : 1
Format : AVC
Format/Info : Advanced Video Codec
Format profile : High@L4
Format settings : CABAC / 4 Ref Frames
Format settings, CABAC : Yes
Format settings, Reference frames : 4 frames
Codec ID : V_MPEG4/ISO/AVC
Duration : 1 h 53 min
Bit rate : 5 120 kb/s
Width : 1 920 pixels
Height : 814 pixels
Display aspect ratio : 2.35:1
Frame rate mode : Constant
Frame rate : 25.000 FPS
Color space : YUV
Chroma subsampling : 4:2:0
Bit depth : 8 bits
Scan type : Progressive
Bits/(Pixel*Frame) : 0.131
Stream size : 4.04 GiB (85%)
Title : Bad City (2022) WEB-DL 1080p Soft-Torrent - торрент игры программы фильмы книги скачать
Writing library : x264 core 152 r2854 e9a5903
Encoding settings : cabac=1 / ref=3 / deblock=1:0:0 / analyse=0x3:0x113 / me=hex / subme=7 / psy=1 / psy_rd=1.00:0.00 / mixed_ref=1 / me_range=16 / chroma_me=1 / trellis=1 / 8x8dct=1 / cqm=0 / deadzone=21,11 / fast_pskip=1 / chroma_qp_offset=-2 / threads=25 / lookahead_threads=4 / sliced_threads=0 / nr=0 / decimate=1 / interlaced=0 / bluray_compat=0 / constrained_intra=0 / bframes=6 / b_pyramid=2 / b_adapt=1 / b_bias=0 / direct=1 / weightb=1 / open_gop=0 / weightp=2 / keyint=50 / keyint_min=26 / scenecut=0 / intra_refresh=0 / rc_lookahead=40 / rc=2pass / mbtree=1 / bitrate=5120 / ratetol=1.0 / qcomp=0.60 / qpmin=0 / qpmax=69 / qpstep=4 / cplxblur=20.0 / qblur=0.5 / vbv_maxrate=7680 / vbv_bufsize=20480 / nal_hrd=none / filler=0 / ip_ratio=1.40 / aq=1:1.00
Language : Japanese
Default : Yes
Forced : No
Audio #1
ID : 2
Format : E-AC-3
Format/Info : Enhanced AC-3
Commercial name : Dolby Digital Plus
Codec ID : A_EAC3
Duration : 1 h 53 min
Bit rate mode : Constant
Bit rate : 448 kb/s
Channel(s) : 6 channels
Channel layout : L R C LFE Ls Rs
Sampling rate : 48.0 kHz
Frame rate : 31.250 FPS (1536 SPF)
Compression mode : Lossy
Stream size : 363 MiB (7%)
Title : DUB (Кипарис)
Language : Russian
Service kind : Complete Main
Default : No
Forced : No
Audio #2
ID : 3
Format : E-AC-3
Format/Info : Enhanced AC-3
Commercial name : Dolby Digital Plus
Codec ID : A_EAC3
Duration : 1 h 53 min
Bit rate mode : Constant
Bit rate : 448 kb/s
Channel(s) : 6 channels
Channel layout : L R C LFE Ls Rs
Sampling rate : 48.0 kHz
Frame rate : 31.250 FPS (1536 SPF)
Compression mode : Lossy
Stream size : 363 MiB (7%)
Language : Japanese
Service kind : Complete Main
Default : No
Forced : No
Text
ID : 4
Format : UTF-8
Codec ID : S_TEXT/UTF8
Codec ID/Info : UTF-8 Plain Text
Duration : 1 h 48 min
Bit rate : 58 b/s
Frame rate : 0.166 FPS
Count of elements : 1081
Stream size : 46.5 KiB (0%)
Title : FULL
Language : Russian
Default : No
Forced : No
Скриншоты:

Дополнительные скриншоты:

Все одноименные релизы в КлубеВремя раздачи: 24/7 (круглосуточно) (минимум до появления первых 3-5 скачавших)
[Профиль] [ЛС]
Показать сообщения:    
Ответить на тему

Текущее время: 20-Апр 18:48

Часовой пояс: UTC ± 0



Вы не можете начинать темы
Вы не можете отвечать на сообщения
Вы не можете редактировать свои сообщения
Вы не можете удалять свои сообщения
Вы не можете голосовать в опросах
Вы не можете прикреплять файлы к сообщениям
Вы не можете скачивать файлы

[  Время выполнения: 0,048 сек  |  MySQL: 0,003 сек (7%) · 3 запр.  |  GZIP выкл  |  Память: 422,29 KB / 1,75 MB / 1,37 MB  |  Лимит: 12 13 12  ]