Дыхание (2023) WEBRip [H.264/2160p] [4K, SDR, 8-bit]

Ответить на тему
 
Автор Сообщение

admin ®

Пол: Не указан

Стаж: 4 месяца 23 дня

Сообщений: 10110

Создавать темы 30-Янв-2024 16:05

[Цитировать]

Дыхание (2023) WEBRip [H.264/2160p] [4K, SDR, 8-bit]- Производство: Россия, START, Yellow, Black & White
Жанр: драма
Режиссер: Роман Каримов
Актеры: Антон Батырев, Ирина ГорбачёваДаниил Воробьев, Андрей Карако, Вера Шпак, Евгения Храповицкая, Дмитрий Павленко, Галина Сазонова, Сергей Лысов, Алексей Гоман
Описание:
Большие испытания открывают истинную красоту человека. Виктор — бывший врач, а ныне успешный бизнесмен — нелегально пробирается в больницу, чтобы помочь маме, заболевшей COVID-19. Рискуя жизнью и свободой, он пытается разобраться с неизвестным вирусом и вместе с медицинским коллективом готовит больницу к пандемии.
Возраст: 16+ (зрителям, достигшим 16 лет)
Релиз от: 7turza
Продолжительность: 01:39:25
Качество видео: WEBRip
Перевод: Не требуется (Русский)
Субтитры: Русские (SDH)
Видео: AVC/H.264, 3840x2160, 20.0 Мbps
Аудио: Е-AC3, 6 ch, 384 Kbps - Русский

MediaInfo:

Общее
Уникальный идентификатор : 125460868294176453886247836674261929019 (0x5E62E2621E239B814C7C6766C8EA4C3B)
Полное имя : D:Dyhanie.2023.WEBRip.2160p.SDR.mkv
Формат : Matroska
Версия формата : Version 4
Размер файла : 13,8 Гбайт
Продолжительность : 1 ч. 39 м.
Общий поток : 19,9 Мбит/сек
Название фильма : Dyhanie.2023.WEBRip.2160p.SDR
Дата кодирования : UTC 2023-08-03 18:10:20
Программа кодирования : mkvmerge v78.0 ('Running') 64-bit
Библиотека кодирования : libebml v1.4.4 + libmatroska v1.7.1
Attachments : poster.jpg
Видео
Идентификатор : 1
Формат : AVC
Формат/Информация : Advanced Video Codec
Профиль формата : High@L5.1
Настройки формата : CABAC / 4 Ref Frames
Параметр CABAC формата : Да
Параметр RefFrames формата : 4 кадра
Идентификатор кодека : V_MPEG4/ISO/AVC
Продолжительность : 1 ч. 39 м.
Битрейт : 20,0 Мбит/сек
Ширина : 3 840 пикселей
Высота : 2 160 пикселей
Соотношение сторон : 16:9
Режим частоты кадров : Постоянный
Частота кадров : 24,000 кадра/сек
Цветовое пространство : YUV
Субдискретизация насыщенности : 4:2:0
Битовая глубина : 8 бит
Тип развёртки : Прогрессивная
Бит/(Пиксели*Кадры) : 0.100
Размер потока : 13,6 Гбайт (98%)
Библиотека кодирования : x264 core 161
Настройки программы : cabac=1 / ref=2 / deblock=1:0:0 / analyse=0x3:0x113 / me=hex / subme=6 / psy=1 / psy_rd=1.00:0.00 / mixed_ref=1 / me_range=16 / chroma_me=1 / trellis=1 / 8x8dct=1 / cqm=0 / deadzone=21,11 / fast_pskip=1 / chroma_qp_offset=-2 / threads=12 / lookahead_threads=2 / sliced_threads=0 / nr=0 / decimate=1 / interlaced=0 / bluray_compat=0 / constrained_intra=0 / bframes=3 / b_pyramid=2 / b_adapt=1 / b_bias=0 / direct=1 / weightb=1 / open_gop=0 / weightp=1 / keyint=250 / keyint_min=24 / scenecut=40 / intra_refresh=0 / rc_lookahead=30 / rc=abr / mbtree=1 / bitrate=20000 / ratetol=1.0 / qcomp=0.60 / qpmin=0 / qpmax=69 / qpstep=4 / vbv_maxrate=24000 / vbv_bufsize=48000 / nal_hrd=none / filler=0 / ip_ratio=1.40 / aq=1:1.00
Default : Да
Forced : Нет
Цветовой диапазон : Limited
Основные цвета : BT.709
Характеристики трансфера : BT.709
Коэффициенты матрицы : BT.709
Аудио
Идентификатор : 2
Формат : E-AC-3
Формат/Информация : Enhanced AC-3
Коммерческое название : Dolby Digital Plus
Идентификатор кодека : A_EAC3
Продолжительность : 1 ч. 39 м.
Вид битрейта : Постоянный
Битрейт : 384 Кбит/сек
Каналы : 6 каналов
Channel layout : L R C LFE Ls Rs
Частота : 48,0 КГц
Частота кадров : 31,250 кадров/сек (1536 SPF)
Метод сжатия : С потерями
Размер потока : 273 Мбайт (2%)
Заголовок : [Original | 5.1 E-AC3 Audio]
Язык : Russian
Service kind : Complete Main
Default : Да
Forced : Нет
Текст
Идентификатор : 3
Формат : UTF-8
Идентификатор кодека : S_TEXT/UTF8
Идентификатор кодека/Информация : UTF-8 Plain Text
Продолжительность : 1 ч. 36 м.
Битрейт : 105 бит/сек
Частота кадров : 0,222 кадр/сек
Count of elements : 1283
Размер потока : 74,2 Кбайт (0%)
Заголовок : [SDH]
Язык : Russian
Default : Нет
Forced : Нет
Скриншоты:
Все одноименные релизы в КлубеВремя раздачи: 24/7 (мультитрекер)
[Профиль] [ЛС]
Показать сообщения:    
Ответить на тему

Текущее время: 22-Фев 00:27

Часовой пояс: UTC ± 0



Вы не можете начинать темы
Вы не можете отвечать на сообщения
Вы не можете редактировать свои сообщения
Вы не можете удалять свои сообщения
Вы не можете голосовать в опросах
Вы не можете прикреплять файлы к сообщениям
Вы не можете скачивать файлы

[  Время выполнения: 0,031 сек  |  MySQL: 0,002 сек (7%) · 3 запр.  |  GZIP выкл  |  Память: 421,85 KB / 1,73 MB / 1,34 MB  |  Лимит: 15 15 13  ]