Наёмный убийца / The Assassin (Salsu) (2023) BDRip [H.264/1080p-LQ] [MVO] [AD]

Ответить на тему
 
Автор Сообщение

admin ®

Пол: Не указан

Стаж: 4 месяца 23 дня

Сообщений: 10110

Создавать темы 30-Янв-2024 16:04

[Цитировать]

Наёмный убийца / The Assassin (Salsu) (2023) BDRip [H.264/1080p-LQ]- Производство: Корея Южная / JNC Media GroupJoy n Cinema
Жанр: боевик, приключения, история
Режиссер: Квак Чон-док
Актеры: Щин Хён-джун, Ли Мун-щик, Ким Мин-гён, Ли Джон-мин, Мин Гён-джин
Описание:
После нескольких войн Чосон находится в хаосе, законы перестали служить людям, а амбиции правителей зашкаливают. Они нанимают убийц, которые уничтожали тех, кто впал в немилость. Ли Нан был лучшим наёмным убийцей Чосона. Откуда он и на кого работает - никто не знает, но он всегда выполняет работу безукоризненно. Однажды Ли Нан вынужден обратиться к лекарю: его мучают боли в сердце. Вскоре опускает меч и скрывается там, где его никто не узнает. Но от судьбы не скроешься.
Дата мировой премьеры: February 22, 2023
Продолжительность: 01:38:04
Качество видео: BDRip
Перевод: Многоголосый профессиональный (Синема УС)
Субтитры: Отсутствуют
Реклама: Присутствует баннер.
Видео: AVC/H.264, 1920x1080, ~4500 Kbps
Аудио: AC3, 2 ch, 384 Kbps

MediaInfo:

Общее
Уникальный идентификатор : 233915511514656327018662043940233591795 (0xAFFA7D2289FC3810887B89EFFEBABBF3)
Полное имя : E:\NNM\Наёмный убийца\The.Assassin.2023.BDRip.1080p.mkv
Формат : Matroska
Версия формата : Version 4
Размер файла : 6,24 Гбайт
Продолжительность : 1 ч. 38 м.
Режим общего битрейта : Постоянный
Общий поток : 9 110 Кбит/сек
Дата кодирования : UTC 2023-08-04 11:12:17
Программа кодирования : mkvmerge v6.9.1 ('Blue Panther') 32bit built on Apr 18 2014 18:15:44
Библиотека кодирования : libebml v1.3.0 + libmatroska v1.4.1
Видео
Идентификатор : 1
Формат : AVC
Формат/Информация : Advanced Video Codec
Профиль формата : High@L4.1
Настройки формата : CABAC / 4 Ref Frames
Параметр CABAC формата : Да
Параметр RefFrames формата : 4 кадра
Идентификатор кодека : V_MPEG4/ISO/AVC
Продолжительность : 1 ч. 38 м.
Вид битрейта : Постоянный
Битрейт : 8 545 Кбит/сек
Номинальный битрейт : 10 000 Кбит/сек
Ширина : 1 920 пикселей
Высота : 1 036 пикселей
Соотношение сторон : 1,85:1
Режим частоты кадров : Постоянный
Частота кадров : 23,976 (24000/1001) кадра/сек
Стандарт вещания : Component
Цветовое пространство : YUV
Субдискретизация насыщенности : 4:2:0
Битовая глубина : 8 бит
Тип развёртки : Прогрессивная
Бит/(Пиксели*Кадры) : 0.179
Размер потока : 5,85 Гбайт (94%)
Default : Нет
Forced : Нет
Цветовой диапазон : Limited
Основные цвета : BT.709
Характеристики трансфера : BT.709
Коэффициенты матрицы : BT.709
Аудио
Идентификатор : 2
Формат : AC-3
Формат/Информация : Audio Coding 3
Коммерческое название : Dolby Digital
Идентификатор кодека : A_AC3
Продолжительность : 1 ч. 38 м.
Вид битрейта : Постоянный
Битрейт : 384 Кбит/сек
Каналы : 2 канала
Channel layout : L R
Частота : 48,0 КГц
Частота кадров : 31,250 кадров/сек (1536 SPF)
Метод сжатия : С потерями
Размер потока : 269 Мбайт (4%)
Язык : Russian
Service kind : Complete Main
Default : Да
Forced : Нет
Скриншоты: Все одноименные релизы в КлубеВремя раздачи: 24/7 (до 10-ти скачавших)
[Профиль] [ЛС]
Показать сообщения:    
Ответить на тему

Текущее время: 22-Фев 00:50

Часовой пояс: UTC ± 0



Вы не можете начинать темы
Вы не можете отвечать на сообщения
Вы не можете редактировать свои сообщения
Вы не можете удалять свои сообщения
Вы не можете голосовать в опросах
Вы не можете прикреплять файлы к сообщениям
Вы не можете скачивать файлы

[  Время выполнения: 0,032 сек  |  MySQL: 0,003 сек (9%) · 5 запр.  |  GZIP выкл  |  Память: 421,85 KB / 1,73 MB / 1,34 MB  |  Лимит: 20 18 16  ]