Голова-жестянка (2022) WEBRip [H.264/720p]

Ответить на тему
 
Автор Сообщение

admin ®

Пол: Не указан

Стаж: 5 месяца 1 день

Сообщений: 10110

Создавать темы 30-Янв-2024 16:04

[Цитировать]

Голова-жестянка (2022) WEBRip - Производство: Россия / QS FILMS, Киномир, Segezha Group
Жанр: драма, комедия
Режиссер: Иван Капитонов
Продюсер: Иван Капитонов, Святослав Подгаевский, Георгий Шабанов
Актеры: Варвара Володина, Олег Чугунов, Сергей Гилев, Татьяна Яковенко, Анна Попова, Даниил Вершинин, Наталья Кудряшова, Владимир Селезнев, Юрий Ицков, Дима Мальков
Описание:
16-летняя Женя, которую все зовут Жесть, сполна оправдывает свое прозвище: жестит и разрушает отношения со всеми вокруг. Такой она стала после сотрясения мозга и травмы ноги. Теперь она хромает и видит мир далеко не в розовом цвете. В своей травме Женя винит лучшего (а теперь бывшего) друга Приходько и направляет на него весь свой гнев и искрометный цинизм. Но, кроме Приходько, достается всем: родителям, старшему брату, подругам и одноклассникам. Все меняется после знакомства с руководителем кружка робототехники Святославом, который становится наставником Жени. Взаимодействуя с роботами, она учится общению с людьми, начинает снова радоваться жизни, а главное — вновь обретает старого друга.
Возраст: 12+ (зрителям, достигшим 12 лет)
Продолжительность: 01:50:49
Качество видео: WEBRip
Субтитры: отсутствуют
Видео: AVC/H.264, 1280x720, ~2299 Kbps
Аудио: AAC, 2 ch, 265 Kbps

MediaInfo:

Общее
Полное имя : H:\NEW FILMS 2023\Голова-жестянка (2023).mp4
Формат : MPEG-4
Профиль формата : Base Media
Идентификатор кодека : isom (isom/iso2/avc1/mp41)
Размер файла : 1,99 Гбайт
Продолжительность : 1 ч. 50 м.
Режим общего битрейта : Переменный
Общий поток : 2 567 Кбит/сек
Программа кодирования : Lavf58.76.100
Видео
Идентификатор : 1
Формат : AVC
Формат/Информация : Advanced Video Codec
Профиль формата : Main@L3.1
Настройки формата : CABAC / 3 Ref Frames
Параметр CABAC формата : Да
Параметр RefFrames формата : 3 кадра
Параметр GOP формата : M=1, N=75
Идентификатор кодека : avc1
Идентификатор кодека/Информация : Advanced Video Coding
Продолжительность : 1 ч. 50 м.
Duration_FirstFrame : 43 мс.
Вид битрейта : Переменный
Битрейт : 2 299 Кбит/сек
Максимальный битрейт : 6 925 Кбит/сек
Ширина : 1 280 пикселей
Высота : 720 пикселей
Соотношение сторон : 16:9
Режим частоты кадров : Постоянный
Частота кадров : 25,000 кадров/сек
Цветовое пространство : YUV
Субдискретизация насыщенности : 4:2:0
Битовая глубина : 8 бит
Тип развёртки : Прогрессивная
Бит/(Пиксели*Кадры) : 0.100
Размер потока : 1,78 Гбайт (90%)
Дата пометки : UTC 2023-08-04 05:50:40
Codec configuration box : avcC
Аудио
Идентификатор : 2
Формат : AAC LC
Формат/Информация : Advanced Audio Codec Low Complexity
Идентификатор кодека : mp4a-40-2
Продолжительность : 1 ч. 50 м.
Вид битрейта : Постоянный
Битрейт : 265 Кбит/сек
Каналы : 2 канала
Channel layout : L R
Частота : 48,0 КГц
Частота кадров : 46,875 кадров/сек (1024 SPF)
Метод сжатия : С потерями
Размер потока : 208 Мбайт (10%)
Default : Да
Alternate group : 1
Дата пометки : UTC 2023-08-04 05:50:40
Скриншоты:
Все одноименные релизы в КлубеВремя раздачи: с 11:00 до 23:00 (минимум до появления первых 3-5 скачавших)
[Профиль] [ЛС]
Показать сообщения:    
Ответить на тему

Текущее время: 29-Фев 11:46

Часовой пояс: UTC ± 0



Вы не можете начинать темы
Вы не можете отвечать на сообщения
Вы не можете редактировать свои сообщения
Вы не можете удалять свои сообщения
Вы не можете голосовать в опросах
Вы не можете прикреплять файлы к сообщениям
Вы не можете скачивать файлы

[  Время выполнения: 0,036 сек  |  MySQL: 0,003 сек (9%) · 3 запр.  |  GZIP выкл  |  Память: 422,29 KB / 1,74 MB / 1,34 MB  |  Лимит: 9 11 11  ]