Утечка / Lagaslas (2023) WEBRip [H.264/1080p] [MVO, AD]

Ответить на тему
 
Автор Сообщение

admin ®

Пол: Не указан

Стаж: 5 месяца 1 день

Сообщений: 10110

Создавать темы 30-Янв-2024 16:04

[Цитировать]

Утечка / Lagaslas (2023) WEBRip [H.264/1080p] - Производство: Филиппины / Viva Films
Жанр: драма, эротика
Режиссер: Christopher Novabos
Актеры: V.R. Velosa, Maebelle Medina, Хулио Диас, Руби Руби и др.
Описание:
Молодой человек по имени Эдмар безумно влюбляется в Каришму, девушку из Баррио. Будет ли он по-прежнему любить ее, если узнает самый глубокий и мрачный секрет Каришмы?
Возраст: 18+ (зрителям, достигшим 18 лет. запрещено для детей)
Продолжительность: 01:34:04
Качество видео: WEBRip
Перевод: Многоголосый любительский (Синема УС)
Язык озвучки: русский
Субтитры: отсутствуют
Реклама: Присутствует баннер, голосовые вставки рекламы
Видео: AVC/H.264, 1920x1080 (16:9), ~2935 Kbps
Аудио: AC3, 2 ch, 192 Kbps - русский

MediaInfo:

Общее
Уникальный идентификатор : 56393622660912015770501769002183877394 (0x2A6D0443892180F28B6BA3CA74A0E312)
Полное имя : G:\Утечка (2023).mkv
Формат : Matroska
Версия формата : Version 4
Размер файла : 2,10 Гбайт
Продолжительность : 1 ч. 34 м.
Общий поток : 3 189 Кбит/сек
Частота кадров : 30,000 кадров/сек
Программа кодирования : Lavf57.71.100
Библиотека кодирования : Lavf57.71.100
ErrorDetectionType : Per level 1
Видео
Идентификатор : 1
Формат : AVC
Формат/Информация : Advanced Video Codec
Профиль формата : High@L4.1
Настройки формата : CABAC / 4 Ref Frames
Параметр CABAC формата : Да
Параметр RefFrames формата : 4 кадра
Идентификатор кодека : V_MPEG4/ISO/AVC
Продолжительность : 1 ч. 34 м.
Битрейт : 2 933 Кбит/сек
Ширина : 1 920 пикселей
Высота : 1 080 пикселей
Соотношение сторон : 16:9
Режим частоты кадров : Постоянный
Частота кадров : 30,000 кадров/сек
Цветовое пространство : YUV
Субдискретизация насыщенности : 4:2:0
Битовая глубина : 8 бит
Тип развёртки : Прогрессивная
Бит/(Пиксели*Кадры) : 0.047
Размер потока : 1,93 Гбайт (92%)
Библиотека кодирования : x264 core 155 r2917 0a84d98
Настройки программы : cabac=1 / ref=3 / deblock=1:0:0 / analyse=0x3:0x113 / me=hex / subme=7 / psy=1 / psy_rd=1.00:0.00 / mixed_ref=1 / me_range=16 / chroma_me=1 / trellis=1 / 8x8dct=1 / cqm=0 / deadzone=21,11 / fast_pskip=1 / chroma_qp_offset=-2 / threads=34 / lookahead_threads=5 / sliced_threads=0 / nr=0 / decimate=1 / interlaced=0 / bluray_compat=0 / constrained_intra=0 / bframes=3 / b_pyramid=2 / b_adapt=1 / b_bias=0 / direct=1 / weightb=1 / open_gop=0 / weightp=2 / keyint=48 / keyint_min=25 / scenecut=0 / intra_refresh=0 / rc_lookahead=40 / rc=crf / mbtree=1 / crf=23.0 / qcomp=0.60 / qpmin=0 / qpmax=69 / qpstep=4 / ip_ratio=1.40 / aq=1:1.00
Default : Да
Forced : Нет
Аудио
Идентификатор : 2
Формат : AC-3
Формат/Информация : Audio Coding 3
Коммерческое название : Dolby Digital
Идентификатор кодека : A_AC3
Продолжительность : 1 ч. 34 м.
Вид битрейта : Постоянный
Битрейт : 192 Кбит/сек
Каналы : 2 канала
Channel layout : L R
Частота : 48,0 КГц
Частота кадров : 31,250 кадров/сек (1536 SPF)
Метод сжатия : С потерями
Задержка видео : -67 мс.
Размер потока : 129 Мбайт (6%)
Service kind : Complete Main
Default : Да
Forced : Нет
Скриншоты:
Все одноименные релизы в КлубеВремя раздачи: 24/7 (круглосуточно) (минимум до появления первых 3-5 скачавших)
[Профиль] [ЛС]
Показать сообщения:    
Ответить на тему

Текущее время: 29-Фев 12:22

Часовой пояс: UTC ± 0



Вы не можете начинать темы
Вы не можете отвечать на сообщения
Вы не можете редактировать свои сообщения
Вы не можете удалять свои сообщения
Вы не можете голосовать в опросах
Вы не можете прикреплять файлы к сообщениям
Вы не можете скачивать файлы

[  Время выполнения: 0,035 сек  |  MySQL: 0,003 сек (8%) · 3 запр.  |  GZIP выкл  |  Память: 422,29 KB / 1,74 MB / 1,34 MB  |  Лимит: 17 16 14  ]