Снегирь (2023) WEBRip [H.264/1080p]

Ответить на тему
 
Автор Сообщение

admin ®

Пол: Не указан

Стаж: 4 месяца 27 дня

Сообщений: 10110

Создавать темы 30-Янв-2024 16:04

[Цитировать]

Снегирь (2023) WEBRip [H.264/1080p] - Производство: Россия / Студия Глобус, Кинокомпания CTB
Жанр: драма
Режиссер: Борис Хлебников
Продюсер: Сергей Сельянов, Наталья Дрозд, Наталья Смирнова
Актеры: Александр Робак, Тимофей Трибунцев, Евгений Сытый, Сергей Наседкин, Михаил Кремер, Владимир Лукьянчиков, Олег Савостюк, Макар Хлебников, Анатолий Попов, Василий Щипицын
Описание:
Рыболовное судно​ «Снегирь»​ — плавучий дом для банды морских бродяг. Они все разные, но есть кое-что общее: желание взять улов побогаче, хорошо заработать, вернуться на берег живыми. В команду вливаются два новичка​, Никита и Максим. Ледяные волны, работа на износ и компания хмурых моряков — не таким им виделся этот летний круиз. С видео для блога придется повременить и недовольство оставить при себе. Море изменчиво, и шторм — не главное испытание, которое ждет команду корабля.
Возраст: 16+ (зрителям, достигшим 16 лет)
Релиз от: ELEKTRI4KA & UNIONGANG
Продолжительность: 01:52:05
Качество видео: WEBRip (Okko)
Перевод: Не требуется (Русский)
Язык озвучки: Русский
Субтитры: Русские (Full, SDH)
Видео: AVC/H.264, 1920x1036, ~6000 Kbps
Аудио 1: AC3, 6 ch, 384 Kbps | Русский
Аудио 2: E-AC3, 6 ch, 384 Kbps | Русский

MediaInfo:

Complete name                            : Snegir.2023.WEB-DL.1080p.ELEKTRI4KA.UNIONGANG.mkv
Format : Matroska
Format version : Version 4
File size : 5.26 GiB
Duration : 1 h 52 min
Overall bit rate : 6 721 kb/s
Movie name : Snegir.2023.WEB-DL.1080p.ELEKTRI4KA.UNIONGANG.
Encoded date : UTC 2023-07-13 09:53:54
Writing application : mkvmerge v8.3.0 ('Over the Horizon') 64bit
Writing library : libebml v1.3.1 + libmatroska v1.4.2
Video
ID : 1
Format : AVC
Format/Info : Advanced Video Codec
Format profile : High@L4
Format settings : CABAC / 4 Ref Frames
Format settings, CABAC : Yes
Format settings, Reference frames : 4 frames
Codec ID : V_MPEG4/ISO/AVC
Duration : 1 h 52 min
Bit rate : 6 000 kb/s
Width : 1 920 pixels
Height : 1 036 pixels
Display aspect ratio : 1.85:1
Frame rate mode : Constant
Frame rate : 25.000 FPS
Color space : YUV
Chroma subsampling : 4:2:0
Bit depth : 8 bits
Scan type : Progressive
Bits/(Pixel*Frame) : 0.121
Stream size : 4.66 GiB (89%)
Writing library : x264 core 157
Encoding settings : cabac=1 / ref=4 / deblock=1:0:0 / analyse=0x3:0x133 / me=umh / subme=10 / psy=1 / psy_rd=1.00:0.00 / mixed_ref=1 / me_range=24 / chroma_me=1 / trellis=2 / 8x8dct=1 / cqm=0 / deadzone=21,11 / fast_pskip=1 / chroma_qp_offset=-2 / threads=32 / lookahead_threads=5 / sliced_threads=0 / nr=0 / decimate=1 / interlaced=0 / bluray_compat=0 / stitchable=1 / constrained_intra=0 / bframes=8 / b_pyramid=2 / b_adapt=2 / b_bias=0 / direct=3 / weightb=1 / open_gop=0 / weightp=2 / keyint=250 / keyint_min=25 / scenecut=40 / intra_refresh=0 / rc_lookahead=60 / rc=2pass / mbtree=1 / bitrate=6000 / ratetol=1.0 / qcomp=0.60 / qpmin=0 / qpmax=69 / qpstep=4 / cplxblur=20.0 / qblur=0.5 / vbv_maxrate=6600 / vbv_bufsize=12000 / nal_hrd=none / filler=0 / ip_ratio=1.40 / aq=1:1.00
Language : Russian
Default : Yes
Forced : No
Audio #1
ID : 2
Format : AC-3
Format/Info : Audio Coding 3
Commercial name : Dolby Digital
Codec ID : A_AC3
Duration : 1 h 52 min
Bit rate mode : Constant
Bit rate : 384 kb/s
Channel(s) : 6 channels
Channel layout : L R C LFE Ls Rs
Sampling rate : 48.0 kHz
Frame rate : 31.250 FPS (1536 SPF)
Compression mode : Lossy
Stream size : 308 MiB (6%)
Title : Original AC3 (OKKO)
Language : Russian
Service kind : Complete Main
Default : Yes
Forced : Yes
Audio #2
ID : 3
Format : E-AC-3
Format/Info : Enhanced AC-3
Commercial name : Dolby Digital Plus
Codec ID : A_EAC3
Duration : 1 h 52 min
Bit rate mode : Constant
Bit rate : 384 kb/s
Channel(s) : 6 channels
Channel layout : L R C LFE Ls Rs
Sampling rate : 48.0 kHz
Frame rate : 31.250 FPS (1536 SPF)
Compression mode : Lossy
Stream size : 308 MiB (6%)
Title : Original EAC3 (OKKO)
Language : Russian
Service kind : Complete Main
Default : No
Forced : No
Text #1
ID : 4
Format : UTF-8
Codec ID : S_TEXT/UTF8
Codec ID/Info : UTF-8 Plain Text
Duration : 1 h 44 min
Bit rate : 86 b/s
Count of elements : 1102
Stream size : 66.5 KiB (0%)
Title : Full
Language : Russian
Default : No
Forced : No
Text #2
ID : 5
Format : UTF-8
Codec ID : S_TEXT/UTF8
Codec ID/Info : UTF-8 Plain Text
Duration : 1 h 47 min
Bit rate : 102 b/s
Count of elements : 1577
Stream size : 80.8 KiB (0%)
Title : SDH
Language : Russian
Default : No
Forced : No
Скриншоты:
Все одноименные релизы в КлубеВремя раздачи: 24/7 (мультитрекерная раздача)
[Профиль] [ЛС]
Показать сообщения:    
Ответить на тему

Текущее время: 25-Фев 19:09

Часовой пояс: UTC ± 0



Вы не можете начинать темы
Вы не можете отвечать на сообщения
Вы не можете редактировать свои сообщения
Вы не можете удалять свои сообщения
Вы не можете голосовать в опросах
Вы не можете прикреплять файлы к сообщениям
Вы не можете скачивать файлы

[  Время выполнения: 0,043 сек  |  MySQL: 0,003 сек (6%) · 3 запр.  |  GZIP выкл  |  Память: 422,29 KB / 1,74 MB / 1,36 MB  |  Лимит: 16 17 18  ]