Непосредственно Каха. Другой фильм (2023) WEBRip [H.264/1080p]

Ответить на тему
 
Автор Сообщение

admin ®

Пол: Не указан

Стаж: 4 месяца 23 дня

Сообщений: 10110

Создавать темы 30-Янв-2024 16:04

[Цитировать]

Непосредственно Каха. Другой фильм (2023) WEBRip [H.264/1080p]«Другое время — другой фильм»-[img=right]https://nnmstatic.win/forum/image.php?link=https://...3b12e6.jpg[/img]
Производство: Россия / ПЕНЗФИЛЬММАШ, НеМедиа
Жанр: комедия
Режиссер: Виктор Шамиров
Продюсер: Алексан Хачатурян, Евгений Мишиев, Борис Ханчалян
Актеры: Артем Карокозян, Артем Калайджян, Елена Осипова, Ева Зограбян, Вартан Даниелян, Тамара Турава, Глеб Сипунов, Арам Айрапетян, Яков Кешишян, Георгий Рогонян
Описание:
Каха и Серго дня не могут прожить без новых проблем на свою голову. Но на этот раз уже не шутками пахнет, речь идет о жизни и смерти. И когда судьба разбрасывает их по разные стороны этой линии, они перестают быть друзьями. Что должно случиться, чтобы один смог простить другого?
[/url]
Возраст: 18+ (зрителям, достигшим 18 лет. запрещено для детей)
Релиз от: Soft-Torrent - торрент игры программы фильмы книги скачать|karfagen1975
Продолжительность: 01:28:53
Качество видео: WEBRip
Язык озвучки: Русский
Субтитры: Отсутствуют
Видео: AVC/H.264, 1920x1036, ~5120 Kbps
Аудио: AAC, 6 ch, 512 Kbps - Русский

MediaInfo:

General
Unique ID : 89186647277315758790844802722208258034 (0x4318B934E080DE03E9B2550931D997F2)
Complete name : Непосредственно Каха. Другой фильм (2023) WEB-DL 1080p Soft-Torrent - торрент игры программы фильмы книги скачать.mkv
Format : Matroska
Format version : Version 4
File size : 3.49 GiB
Duration : 1 h 28 min
Overall bit rate : 5 625 kb/s
Frame rate : 24.000 FPS
Encoded date : 2023-07-13 21:49:54 UTC
Writing application : mkvmerge v75.0.0 ('Goliath') 64-bit
Writing library : libebml v1.4.4 + libmatroska v1.7.1
Video
ID : 1
Format : AVC
Format/Info : Advanced Video Codec
Format profile : High@L4
Format settings : CABAC / 4 Ref Frames
Format settings, CABAC : Yes
Format settings, Reference frames : 4 frames
Codec ID : V_MPEG4/ISO/AVC
Duration : 1 h 28 min
Bit rate : 5 120 kb/s
Width : 1 920 pixels
Height : 1 036 pixels
Display aspect ratio : 1.85:1
Frame rate mode : Constant
Frame rate : 24.000 FPS
Color space : YUV
Chroma subsampling : 4:2:0
Bit depth : 8 bits
Scan type : Progressive
Bits/(Pixel*Frame) : 0.107
Stream size : 3.17 GiB (91%)
Title : Непосредственно Каха. Другой фильм (2023) WEB-DL 1080p Soft-Torrent - торрент игры программы фильмы книги скачать
Writing library : x264 core 152 r2854 e9a5903
Encoding settings : cabac=1 / ref=3 / deblock=1:0:0 / analyse=0x3:0x113 / me=hex / subme=7 / psy=1 / psy_rd=1.00:0.00 / mixed_ref=1 / me_range=16 / chroma_me=1 / trellis=1 / 8x8dct=1 / cqm=0 / deadzone=21,11 / fast_pskip=1 / chroma_qp_offset=-2 / threads=32 / lookahead_threads=5 / sliced_threads=0 / nr=0 / decimate=1 / interlaced=0 / bluray_compat=0 / constrained_intra=0 / bframes=6 / b_pyramid=2 / b_adapt=1 / b_bias=0 / direct=1 / weightb=1 / open_gop=0 / weightp=2 / keyint=48 / keyint_min=25 / scenecut=0 / intra_refresh=0 / rc_lookahead=40 / rc=2pass / mbtree=1 / bitrate=5120 / ratetol=1.0 / qcomp=0.60 / qpmin=0 / qpmax=69 / qpstep=4 / cplxblur=20.0 / qblur=0.5 / vbv_maxrate=7680 / vbv_bufsize=20480 / nal_hrd=none / filler=0 / ip_ratio=1.40 / aq=1:1.00
Language : Russian
Default : Yes
Forced : No
Audio
ID : 2
Format : AAC LC
Format/Info : Advanced Audio Codec Low Complexity
Codec ID : A_AAC-2
Duration : 1 h 28 min
Bit rate : 512 kb/s
Channel(s) : 6 channels
Channel layout : C L R Ls Rs LFE
Sampling rate : 48.0 kHz
Frame rate : 46.875 FPS (1024 SPF)
Compression mode : Lossy
Stream size : 326 MiB (9%)
Language : Russian
Default : Yes
Forced : No
Скриншоты:
[url=https://i6.imageban.ru/out/2023/07/14/835ab25fe32e3dc40bf8d3f96c39a46a.png][img]https://nnmstatic.win/forum/image.php?link=https://i7.imageban.ru/out/2023/07/14/38170737a94ad316ec101fda413a7f8f.png[/img]
[img]https://nnmstatic.win/forum/image.php?link=https://i3.imageban.ru/out/2023/07/14/04d3a0a599dd267c7de0e129da63f2a7.png[/img] [img]https://nnmstatic.win/forum/image.php?link=https://i2.imageban.ru/out/2023/07/14/750591e8645defa1c3d7c3efbf149d16.png[/img] [img]https://nnmstatic.win/forum/image.php?link=https://i5.imageban.ru/out/2023/07/14/916d9b1aef1750dd9a1b747f47c01728.png[/img] [img]https://nnmstatic.win/forum/image.php?link=https://i6.imageban.ru/out/2023/07/14/a352b75963d3ff34c0e8dacbd20304a1.png[/img] Время раздачи: 24/7 (круглосуточно) (минимум до появления первых 3-5 скачавших)
[Профиль] [ЛС]
Показать сообщения:    
Ответить на тему

Текущее время: 22-Фев 02:02

Часовой пояс: UTC ± 0



Вы не можете начинать темы
Вы не можете отвечать на сообщения
Вы не можете редактировать свои сообщения
Вы не можете удалять свои сообщения
Вы не можете голосовать в опросах
Вы не можете прикреплять файлы к сообщениям
Вы не можете скачивать файлы

[  Время выполнения: 0,040 сек  |  MySQL: 0,003 сек (8%) · 3 запр.  |  GZIP выкл  |  Память: 421,85 KB / 1,74 MB / 1,34 MB  |  Лимит: 10 10 12  ]