Снегирь (2023) WEBRip

Ответить на тему
 
Автор Сообщение

admin ®

Пол: Не указан

Стаж: 5 месяца

Сообщений: 10110

Создавать темы 30-Янв-2024 16:04

[Цитировать]

Снегирь (2023) WEBRip - Производство: Россия / Студия Глобус, Кинокомпания CTB / СТВ
Жанр: драма, мелодрама, катастрофа
Режиссер: Борис Хлебников
Продюсер: Сергей Сельянов, Наталья Дрозд, Наталья Смирнова
Актеры: Александр Робак, Тимофей Трибунцев, Евгений Сытый, Сергей Наседкин, Михаил Кремер, Владимир Лукьянчиков, Олег Савостюк, Макар Хлебников, Анатолий Попов, Василий Щипицын
Описание:
Рыболовное судно​ «Снегирь»​ — плавучий дом для банды морских бродяг. Они все разные, но есть кое-что общее: желание взять улов побогаче, хорошо заработать, вернуться на берег живыми. В команду вливаются два новичка​, Никита и Максим. Ледяные волны, работа на износ и компания хмурых моряков — не таким им виделся этот летний круиз. С видео для блога придется повременить и недовольство оставить при себе. Море изменчиво, и шторм — не главное испытание, которое ждет команду корабля.
Возраст: 16+ (зрителям, достигшим 16 лет)
Релиз от: ELEKTRI4KA & UNIONGANG
Продолжительность: 01:52:04
Качество видео: WEBRip
Субтитры: Русские (Full, SDH) отдельно
Видео: Xvid, 720x384, ~1475 Kbps
Аудио: AC3, 6 ch, 384 Kbps

MediaInfo:

Общее
Полное имя : H:\НОВИНКИ ФИЛЬМЫ 2023\Snegir.2023.WEB-DLRip.ELEKTRI4KA.UNIONGANG\Snegir.2023.WEB-DLRip.ELEKTRI4KA.UNIONGANG.avi
Формат : AVI
Формат/Информация : Audio Video Interleave
Размер файла : 1,46 Гбайт
Продолжительность : 1 ч. 52 м.
Общий поток : 1 868 Кбит/сек
Название фильма : Snegir.2023.WEB-DL.1080p.ELEKTRI4KA.UNIONGANG.
Программа кодирования : VirtualDubMod 1.5.10.3 | www.virtualdub-fr.org || (build 2550/release)
Библиотека кодирования : VirtualDubMod build 2550/release
Видео
Идентификатор : 0
Формат : MPEG-4 Visual
Профиль формата : Advanced Simple@L5
Настройки формата : BVOP1 / Custom Matrix
Параметр BVOP формата : 1
Параметр QPel формата : Нет
Параметр GMC формата : Без точки перехода
Параметр матрицы формата : Выборочная
Идентификатор кодека : XVID
Идентификатор кодека/Подсказка : XviD
Продолжительность : 1 ч. 52 м.
Битрейт : 1 475 Кбит/сек
Ширина : 720 пикселей
Высота : 384 пикселя
Соотношение сторон : 1,85:1
Частота кадров : 25,000 кадров/сек
Цветовое пространство : YUV
Субдискретизация насыщенности : 4:2:0
Битовая глубина : 8 бит
Тип развёртки : Прогрессивная
Метод сжатия : С потерями
Бит/(Пиксели*Кадры) : 0.213
Размер потока : 1,15 Гбайт (79%)
Библиотека кодирования : XviD 67
Аудио
Идентификатор : 1
Формат : AC-3
Формат/Информация : Audio Coding 3
Коммерческое название : Dolby Digital
Идентификатор кодека : 2000
Продолжительность : 1 ч. 52 м.
Вид битрейта : Постоянный
Битрейт : 384 Кбит/сек
Каналы : 6 каналов
Channel layout : L R C LFE Ls Rs
Частота : 48,0 КГц
Частота кадров : 31,250 кадров/сек (1536 SPF)
Метод сжатия : С потерями
Размер потока : 308 Мбайт (21%)
Выравнивание : Разделение по промежуткам
Продолжительность промежутка : 40 мс. (1,00 видеокадр)
Время предзагрузки промежутка : 500 мс.
Service kind : Complete Main
Скриншоты:
Все одноименные релизы в КлубеВремя раздачи: 24/7 - круглосуточно (минимум до появления первых 3-5 скачавших)
[Профиль] [ЛС]
Показать сообщения:    
Ответить на тему

Текущее время: 28-Фев 23:54

Часовой пояс: UTC ± 0



Вы не можете начинать темы
Вы не можете отвечать на сообщения
Вы не можете редактировать свои сообщения
Вы не можете удалять свои сообщения
Вы не можете голосовать в опросах
Вы не можете прикреплять файлы к сообщениям
Вы не можете скачивать файлы

[  Время выполнения: 0,033 сек  |  MySQL: 0,003 сек (8%) · 3 запр.  |  GZIP выкл  |  Память: 422,29 KB / 1,72 MB / 1,32 MB  |  Лимит: 9 9 9  ]