Наследие (2023) WEBRip [H.264]

Ответить на тему
 
Автор Сообщение

admin ®

Пол: Не указан

Стаж: 5 месяца

Сообщений: 10110

Создавать темы 30-Янв-2024 16:03

[Цитировать]

Наследие (2023) WEBRip [H.264]- Производство: Россия / Фрут Тайм
Жанр: драма
Режиссер: Роман Михайлов
Продюсер: Юлия Витязева
Актеры: Олег Чугунов, Фёдор Лавров, Евгений Ткачук, Иван Ивашов, Виталий Коваленко, Мария Мацель, Чингиз Гараев, Дарья Мацель, Микита Воронов, Петр Ступин
Описание:
Руслан — симпатичный парень из небольшого городка. Вместе с друзьями он тусуется, ездит на дискотеки, знакомится с девушками, живет своей обычной жизнью. Но однажды он делает шаг в неизвестность, решившись отказаться от рациональности и доверившись вере. Примут ли его друзья, соседи и семья, узнав, что он не такой, как все?
Возраст: 18+ (зрителям, достигшим 18 лет. запрещено для детей)
Продолжительность: 01:05:24
Качество видео: WEBRip
Субтитры: Русские
Видео: AVC/H.264, 720x302, ~760 Kbps
Аудио: AAC, 2 ch, 82 Kbps | Русский

MediaInfo:

Общее
Уникальный идентификатор : 200736880123184651634455566316696053477 (0x9704844F718790CB63709CCB9CD526E5)
Полное имя : Наследие (2023) WEB-DLRip (720x302) AVC.mkv
Формат : Matroska
Версия формата : Version 4 / Version 2
Размер файла : 395 Мбайт
Продолжительность : 1 ч. 5 м.
Общий поток : 844 Кбит/сек
Дата кодирования : UTC 2023-07-14 11:23:15
Программа кодирования : mkvmerge v56.1.0 ('My Friend') 64-bit
Библиотека кодирования : libebml v1.4.2 + libmatroska v1.6.4
Видео
Идентификатор : 1
Формат : AVC
Формат/Информация : Advanced Video Codec
Профиль формата : High@L3.1
Настройки формата : CABAC / 4 Ref Frames
Параметр CABAC формата : Да
Параметр RefFrames формата : 4 кадра
Идентификатор кодека : V_MPEG4/ISO/AVC
Продолжительность : 1 ч. 5 м.
Битрейт : 760 Кбит/сек
Ширина : 720 пикселей
Высота : 302 пикселя
Соотношение сторон : 2,40:1
Режим частоты кадров : Постоянный
Частота кадров : 25,000 кадров/сек
Цветовое пространство : YUV
Субдискретизация насыщенности : 4:2:0
Битовая глубина : 8 бит
Тип развёртки : Прогрессивная
Бит/(Пиксели*Кадры) : 0.140
Размер потока : 356 Мбайт (90%)
Библиотека кодирования : x264 core 163 r3059+11 1aa8b82 [Mod by Patman]
Настройки программы : cabac=1 / ref=3 / deblock=1:0:0 / analyse=0x3:0x113 / me=hex / subme=7 / psy=1 / psy_rd=1.00:0.00 / mixed_ref=1 / me_range=16 / chroma_me=1 / trellis=1 / 8x8dct=1 / cqm=0 / deadzone=21,11 / fast_pskip=1 / chroma_qp_offset=-2 / threads=6 / lookahead_threads=1 / sliced_threads=0 / nr=0 / decimate=1 / interlaced=0 / bluray_compat=0 / constrained_intra=0 / bframes=3 / b_pyramid=2 / b_adapt=1 / b_bias=0 / direct=1 / weightb=1 / open_gop=0 / weightp=2 / keyint=250 / keyint_min=25 / scenecut=40 / intra_refresh=0 / rc_lookahead=40 / rc=2pass / mbtree=1 / bitrate=760 / ratetol=1.0 / qcomp=0.60 / qpmin=0 / qpmax=69 / qpstep=4 / cplxblur=20.0 / qblur=0.5 / ip_ratio=1.40 / aq=1:1.00
Default : Да
Forced : Нет
Аудио
Идентификатор : 2
Формат : AAC
Формат/Информация : Advanced Audio Codec
Профиль формата : HE-AAC / LC
Настройки формата : Explicit
Идентификатор кодека : A_AAC-2
Продолжительность : 1 ч. 5 м.
Битрейт : 82,4 Кбит/сек
Каналы : 2 канала
Расположение каналов : Front: L R
Частота : 48,0 КГц / 24,0 КГц
Частота кадров : 23,438 кадра/сек (1024 SPF)
Метод сжатия : С потерями
Задержка видео : 40 мс.
Размер потока : 38,5 Мбайт (10%)
Язык : Russian
Default : Да
Forced : Нет
Текст
Идентификатор : 3
Формат : UTF-8
Идентификатор кодека : S_TEXT/UTF8
Идентификатор кодека/Информация : UTF-8 Plain Text
Продолжительность : 1 ч. 1 м.
Битрейт : 60 бит/сек
ElementCount : 678
Размер потока : 27,2 Кбайт (0%)
Язык : Russian
Default : Да
Forced : Нет
Скриншоты:
Все одноименные релизы в КлубеВремя раздачи: 24/7 (круглосуточно) (минимум до появления первых 3-5 скачавших)
[Профиль] [ЛС]
Показать сообщения:    
Ответить на тему

Текущее время: 29-Фев 10:47

Часовой пояс: UTC ± 0



Вы не можете начинать темы
Вы не можете отвечать на сообщения
Вы не можете редактировать свои сообщения
Вы не можете удалять свои сообщения
Вы не можете голосовать в опросах
Вы не можете прикреплять файлы к сообщениям
Вы не можете скачивать файлы

[  Время выполнения: 0,036 сек  |  MySQL: 0,004 сек (11%) · 3 запр.  |  GZIP выкл  |  Память: 422,29 KB / 1,74 MB / 1,34 MB  |  Лимит: 11 11 11  ]