Наследие (2023) WEBRip [H.264/1080p]

Ответить на тему
 
Автор Сообщение

admin ®

Пол: Не указан

Стаж: 7 месяца 24 дня

Сообщений: 11520

Создавать темы 30-Янв-2024 16:03

[Цитировать]

Наследие (2023) WEBRip [H.264/1080p]- Производство: Россия / Фрут Тайм
Жанр: драма
Режиссер: Роман Михайлов
Продюсер: Юлия Витязева
Актеры: Олег Чугунов, Фёдор Лавров, Евгений Ткачук, Иван Ивашов, Виталий Коваленко, Мария Мацель, Чингиз Гараев, Дарья Мацель, Микита Воронов, Петр Ступин
Описание:
Руслан — симпатичный парень из небольшого городка. Вместе с друзьями он тусуется, ездит на дискотеки, знакомится с девушками, живет своей обычной жизнью. Но однажды он делает шаг в неизвестность, решившись отказаться от рациональности и доверившись вере. Примут ли его друзья, соседи и семья, узнав, что он не такой, как все?
Возраст: 18+ (зрителям, достигшим 18 лет. запрещено для детей)
Релиз от: Soft-Torrent - торрент игры программы фильмы книги скачать|karfagen1975
Продолжительность: 01:05:24
Качество видео: WEBRip
Язык озвучки: Русский
Субтитры: Русские
Видео: AVC/H.264, 1920x804, ~6000 Kbps
Аудио: E-AC3, 6 ch, 448 Kbps - Русский

MediaInfo:

General
Unique ID : 149170791582796772157240249314435471260 (0x70393FDAE37DDBD3441383735349179C)
Complete name : Наследие (2023) WEB-DL 1080p Soft-Torrent - торрент игры программы фильмы книги скачать.mkv
Format : Matroska
Format version : Version 4
File size : 2.94 GiB
Duration : 1 h 5 min
Overall bit rate : 6 444 kb/s
Frame rate : 25.000 FPS
Encoded date : 2023-07-14 10:16:28 UTC
Writing application : mkvmerge v75.0.0 ('Goliath') 64-bit
Writing library : libebml v1.4.4 + libmatroska v1.7.1
Video
ID : 1
Format : AVC
Format/Info : Advanced Video Codec
Format profile : Progressive High@L4
Format settings : CABAC / 5 Ref Frames
Format settings, CABAC : Yes
Format settings, Reference frames : 5 frames
Codec ID : V_MPEG4/ISO/AVC
Duration : 1 h 5 min
Bit rate : 6 000 kb/s
Width : 1 920 pixels
Height : 804 pixels
Display aspect ratio : 2.40:1
Frame rate mode : Constant
Frame rate : 25.000 FPS
Color space : YUV
Chroma subsampling : 4:2:0
Bit depth : 8 bits
Scan type : Progressive
Bits/(Pixel*Frame) : 0.155
Stream size : 2.74 GiB (93%)
Title : Наследие (2023) WEB-DL 1080p Soft-Torrent - торрент игры программы фильмы книги скачать
Writing library : x264 core 157
Encoding settings : cabac=1 / ref=5 / deblock=1:0:0 / analyse=0x3:0x133 / me=umh / subme=10 / psy=1 / psy_rd=1.00:0.00 / mixed_ref=1 / me_range=24 / chroma_me=1 / trellis=2 / 8x8dct=1 / cqm=0 / deadzone=21,11 / fast_pskip=1 / chroma_qp_offset=-2 / threads=25 / lookahead_threads=4 / sliced_threads=0 / nr=0 / decimate=1 / interlaced=0 / bluray_compat=0 / stitchable=1 / constrained_intra=0 / bframes=8 / b_pyramid=2 / b_adapt=2 / b_bias=0 / direct=3 / weightb=1 / open_gop=0 / weightp=2 / keyint=250 / keyint_min=25 / scenecut=40 / intra_refresh=0 / rc_lookahead=60 / rc=2pass / mbtree=1 / bitrate=6000 / ratetol=1.0 / qcomp=0.60 / qpmin=0 / qpmax=69 / qpstep=4 / cplxblur=20.0 / qblur=0.5 / vbv_maxrate=6600 / vbv_bufsize=12000 / nal_hrd=none / filler=0 / ip_ratio=1.40 / aq=1:1.00
Language : Russian
Default : Yes
Forced : No
Audio
ID : 2
Format : E-AC-3
Format/Info : Enhanced AC-3
Commercial name : Dolby Digital Plus
Codec ID : A_EAC3
Duration : 1 h 5 min
Bit rate mode : Constant
Bit rate : 448 kb/s
Channel(s) : 6 channels
Channel layout : L R C LFE Ls Rs
Sampling rate : 48.0 kHz
Frame rate : 31.250 FPS (1536 SPF)
Compression mode : Lossy
Stream size : 210 MiB (7%)
Language : Russian
Service kind : Complete Main
Default : Yes
Forced : No
Text
ID : 3
Format : UTF-8
Codec ID : S_TEXT/UTF8
Codec ID/Info : UTF-8 Plain Text
Duration : 1 h 1 min
Bit rate : 60 b/s
Frame rate : 0.184 FPS
Count of elements : 678
Stream size : 27.2 KiB (0%)
Language : Russian
Default : No
Forced : No
Скриншоты:

Дополнительные скриншоты:

Все одноименные релизы в КлубеВремя раздачи: 24/7 (круглосуточно) (минимум до появления первых 3-5 скачавших)
[Профиль] [ЛС]
Показать сообщения:    
Ответить на тему

Текущее время: 23-Май 05:40

Часовой пояс: UTC ± 0



Вы не можете начинать темы
Вы не можете отвечать на сообщения
Вы не можете редактировать свои сообщения
Вы не можете удалять свои сообщения
Вы не можете голосовать в опросах
Вы не можете прикреплять файлы к сообщениям
Вы не можете скачивать файлы

[  Время выполнения: 0,034 сек  |  MySQL: 0,003 сек (8%) · 3 запр.  |  GZIP выкл  |  Память: 422,29 KB / 1,72 MB / 1,34 MB  |  Лимит: 15 15 15  ]