Помилование (2023) WEBRip [H.264]

Ответить на тему
 
Автор Сообщение

admin ®

Пол: Не указан

Стаж: 4 месяца 23 дня

Сообщений: 10110

Создавать темы 30-Янв-2024 16:03

[Цитировать]

Помилование (2023) WEBRip [H.264] - Производство: Россия, Мотор Фильм Студия
Жанр: драма, военный
Режиссер: Айнур Аскаров
Актеры: Александр Новиков, Николай Галлямов, Евгений Михеев, Джамиля Мударисова, Гела Месхи, Александр Бухаров, Любовь Зайцева, Юрий Лопарев, Михаил Хмуров, Гузель Хасанова
Описание:
Лето 1942 года. Под Сталинградом начинается жесточайшее сражение, исход которого решит судьбу всего мира… Ещё не нюхавший пороха двадцатилетний сержант Любомир Зух отлучился из своей части в прифронтовой зоне, чтобы проститься с любимой девушкой.​ Всего три часа его не было в части!​ Но по законам военного времени он дезертир. И наказание за это одно — расстрел.​ Приговор слишком суров, и это понимают все. Остановится ли маховик военной машины, будет ли приказ о помиловании?
Возраст: 12+ (зрителям, достигшим 12 лет)
Продолжительность: 01:40:31
Качество видео: WEBRip
Субтитры: Отсутствуют
Видео: AVC/H.264, 720x300, ~1250 Kbps
Аудио: AAC, 6 ch, 320 Kbps | Русский

MediaInfo:

Общее
Уникальный идентификатор : 164540995598472819707165216624124078515 (0x7BC9716BBD8DC7096D368308FAF3A9B3)
Полное имя : Помилование (2023) WEB-DLRip (720x300) AVC.mkv
Формат : Matroska
Версия формата : Version 4 / Version 2
Размер файла : 1,09 Гбайт
Продолжительность : 1 ч. 40 м.
Общий поток : 1550 Кбит/сек
Название фильма : Pomilovanie.2023
Дата кодирования : UTC 2023-07-09 15:25:15
Программа кодирования : mkvmerge v56.1.0 ('My Friend') 64-bit
Библиотека кодирования : libebml v1.4.2 + libmatroska v1.6.4
Видео
Идентификатор : 1
Формат : AVC
Формат/Информация : Advanced Video Codec
Профиль формата : High@L3.1
Настройки формата : CABAC / 8 Ref Frames
Параметр CABAC формата : Да
Параметр RefFrames формата : 8 кадров
Идентификатор кодека : V_MPEG4/ISO/AVC
Продолжительность : 1 ч. 40 м.
Битрейт : 1228 Кбит/сек
Ширина : 720 пикселей
Высота : 300 пикселей
Соотношение сторон : 2,40:1
Режим частоты кадров : Постоянный
Частота кадров : 24,000 кадра/сек
Цветовое пространство : YUV
Субдискретизация насыщенности : 4:2:0
Битовая глубина : 8 бит
Тип развёртки : Прогрессивная
Бит/(Пиксели*Кадры) : 0.237
Размер потока : 882 Мбайт (79%)
Default : Да
Forced : Нет
Аудио
Идентификатор : 2
Формат : AAC
Формат/Информация : Advanced Audio Codec
Профиль формата : LC
Идентификатор кодека : A_AAC-2
Продолжительность : 1 ч. 40 м.
Битрейт : 320 Кбит/сек
Каналы : 6 каналов
Расположение каналов : Front: L C R, Side: L R, LFE
Частота : 48,0 КГц
Частота кадров : 46,875 кадров/сек (1024 SPF)
Метод сжатия : С потерями
Задержка видео : 20 мс.
Размер потока : 230 Мбайт (21%)
Заголовок : Original AAC (IVI)
Язык : Russian
Default : Нет
Forced : Нет
Скриншоты:
Все одноименные релизы в КлубеВремя раздачи: 24/7 (до 3 скачавших)
[Профиль] [ЛС]
Показать сообщения:    
Ответить на тему

Текущее время: 22-Фев 01:00

Часовой пояс: UTC ± 0



Вы не можете начинать темы
Вы не можете отвечать на сообщения
Вы не можете редактировать свои сообщения
Вы не можете удалять свои сообщения
Вы не можете голосовать в опросах
Вы не можете прикреплять файлы к сообщениям
Вы не можете скачивать файлы

[  Время выполнения: 0,041 сек  |  MySQL: 0,006 сек (14%) · 5 запр.  |  GZIP выкл  |  Память: 421,85 KB / 1,73 MB / 1,34 MB  |  Лимит: 21 20 18  ]