14+ Продолжение (2023) WEBRip [H.264/2160p] [4K, SDR, 8-bit]

Ответить на тему
 
Автор Сообщение

admin ®

Пол: Не указан

Стаж: 6 месяца 22 дня

Сообщений: 11520

Создавать темы 30-Янв-2024 16:03

[Цитировать]

14+ Продолжение (2023) WEBRip - Производство: Россия / All Media Company, Сентябрь, START
Жанр: мелодрама
Режиссер: Андрей Зайцев
Актеры: Глеб Калюжный, Ульяна Васькович, Ольга Озоллапиня, Полина Гухман, Даниил Пикула, Дмитрий Блохин, Анна Рудь, Алексей Филимонов, Сергей Габриэлян, Александр Кононец
Описание:
История взросления Леши, которому исполнилось 18 лет. Он встречает яркую и открытую Настю, которая переворачивает его привычный мир, но все еще вспоминает свою первую любовь Вику. Он становится взрослее, а проблемы — серьезнее. Но, как и раньше, справиться с жизненными сложностями и ответить на все вопросы о любви, семье и долге Леша должен самостоятельно.
Возраст: 12+ (зрителям, достигшим 12 лет)
Релиз от: Mrblack
Продолжительность: 02:07:57
Качество видео: WEBRip
Перевод: Не требуется (русский)
Субтитры: отсутствуют
Видео: AVC/H.264, 3840x2160, ~20,0 Mbps
Аудио: E-AC3, 6 ch, 384 Kbps

MediaInfo:

Общее
Уникальный идентификатор : 208642278167290692760520252950510437056 (0x9CF70A86C23EB524E61A24E547E602C0)
Полное имя : C:UsersAdminDesktop14+.Prodolzhenie.2022.WEB-DL.2160p.SDR.mkv
Формат : Matroska
Версия формата : Version 4
Размер файла : 18,0 Гбайт
Продолжительность : 2 ч. 7 м.
Общий поток : 20,2 Мбит/сек
Название фильма : 14+.Prodolzhenie.2022.WEB-DL.2160p.SDR
Дата кодирования : UTC 2023-07-15 21:31:23
Программа кодирования : mkvmerge v78.0 ('Running') 64-bit
Библиотека кодирования : libebml v1.4.4 + libmatroska v1.7.1
Attachments : poster.jpg
Видео
Идентификатор : 1
Формат : AVC
Формат/Информация : Advanced Video Codec
Профиль формата : High@L5.1
Настройки формата : CABAC / 4 Ref Frames
Параметр CABAC формата : Да
Параметр RefFrames формата : 4 кадра
Идентификатор кодека : V_MPEG4/ISO/AVC
Продолжительность : 2 ч. 7 м.
Битрейт : 20,0 Мбит/сек
Ширина : 3 840 пикселей
Высота : 2 160 пикселей
Соотношение сторон : 16:9
Режим частоты кадров : Постоянный
Частота кадров : 25,000 кадров/сек
Цветовое пространство : YUV
Субдискретизация насыщенности : 4:2:0
Битовая глубина : 8 бит
Тип развёртки : Прогрессивная
Бит/(Пиксели*Кадры) : 0.096
Размер потока : 17,7 Гбайт (98%)
Библиотека кодирования : x264 core 161
Настройки программы : cabac=1 / ref=2 / deblock=1:0:0 / analyse=0x3:0x113 / me=hex / subme=6 / psy=1 / psy_rd=1.00:0.00 / mixed_ref=1 / me_range=16 / chroma_me=1 / trellis=1 / 8x8dct=1 / cqm=0 / deadzone=21,11 / fast_pskip=1 / chroma_qp_offset=-2 / threads=12 / lookahead_threads=2 / sliced_threads=0 / nr=0 / decimate=1 / interlaced=0 / bluray_compat=0 / constrained_intra=0 / bframes=3 / b_pyramid=2 / b_adapt=1 / b_bias=0 / direct=1 / weightb=1 / open_gop=0 / weightp=1 / keyint=250 / keyint_min=25 / scenecut=40 / intra_refresh=0 / rc_lookahead=30 / rc=abr / mbtree=1 / bitrate=20000 / ratetol=1.0 / qcomp=0.60 / qpmin=0 / qpmax=69 / qpstep=4 / vbv_maxrate=24000 / vbv_bufsize=48000 / nal_hrd=none / filler=0 / ip_ratio=1.40 / aq=1:1.00
Default : Да
Forced : Нет
Аудио
Идентификатор : 2
Формат : E-AC-3
Формат/Информация : Enhanced AC-3
Коммерческое название : Dolby Digital Plus
Идентификатор кодека : A_EAC3
Продолжительность : 2 ч. 7 м.
Вид битрейта : Постоянный
Битрейт : 384 Кбит/сек
Каналы : 6 каналов
Channel layout : L R C LFE Ls Rs
Частота : 48,0 КГц
Частота кадров : 31,250 кадров/сек (1536 SPF)
Метод сжатия : С потерями
Размер потока : 351 Мбайт (2%)
Заголовок : [Original | 5.1 E-AC3 Audio]
Язык : Russian
Service kind : Complete Main
Default : Да
Forced : Нет
Скриншоты:
Все одноименные релизы в КлубеВремя раздачи: 24/7 - круглосуточно (минимум до появления первых 3-5 скачавших)
[Профиль] [ЛС]
Показать сообщения:    
Ответить на тему

Текущее время: 20-Апр 19:54

Часовой пояс: UTC ± 0



Вы не можете начинать темы
Вы не можете отвечать на сообщения
Вы не можете редактировать свои сообщения
Вы не можете удалять свои сообщения
Вы не можете голосовать в опросах
Вы не можете прикреплять файлы к сообщениям
Вы не можете скачивать файлы

[  Время выполнения: 0,033 сек  |  MySQL: 0,003 сек (10%) · 3 запр.  |  GZIP выкл  |  Память: 422,29 KB / 1,72 MB / 1,32 MB  |  Лимит: 3 4 5  ]