Хитровка. Знак четырех (2023) WEBRip

Ответить на тему
 
Автор Сообщение

admin ®

Пол: Не указан

Стаж: 4 месяца 23 дня

Сообщений: 10110

Создавать темы 30-Янв-2024 16:03

[Цитировать]

Хитровка. Знак четырех (2023) WEBRip - Производство: Россия, Курьер, Мосфильм
Жанр: детектив, комедия
Режиссер: Карен Шахназаров
Продюсер: Карен Шахназаров, Галина Шадур
Актеры: Константин Крюков, Михаил Пореченков, Алексей Вертков, Александр Олешко, Анфиса Черных, Евгений Стычкин, Борис Каморзин, Аюб Цингиев, Юлия Витрук, Денис Сладков
Описание:
Москва, 1902 год. Знаменитый режиссер Константин Станиславский в поисках вдохновения для постановки новой пьесы решает познакомиться с жизнью городского «дна». Он обращается за помощью к признанному знатоку московских трущоб Владимиру Гиляровскому. Вместе они отправляются на легендарную бандитскую Хитровку и оказываются втянуты в расследование убийства загадочного местного жителя - индийца-сикха с тёмным прошлым.
Возраст: 12+ (зрителям, достигшим 12 лет)
Релиз от: sudar007
Продолжительность: 02:09:05
Качество видео: WEBRip
Перевод: Не требуется (Русский)
Субтитры: отсутствуют
Видео: Xvid, 704x400, ~1226 Kbps
Аудио: AC3, 6 ch, 384 Kbps

MediaInfo:

Общее
Полное имя : H:\НОВИНКИ ФИЛЬМЫ 2023\Khitrovka.Znak.chetyryokh.2023.RUS.WEB-DLRip.1.46Gb.MegaPeer.avi
Формат : AVI
Формат/Информация : Audio Video Interleave
Размер файла : 1,46 Гбайт
Продолжительность : 2 ч. 9 м.
Общий поток : 1 619 Кбит/сек
Программа кодирования : VirtualDubMod 1.5.10.3 | www.virtualdub-fr.org || (build 2550/release)
Библиотека кодирования : VirtualDubMod build 2550/release
Видео
Идентификатор : 0
Формат : MPEG-4 Visual
Профиль формата : Advanced Simple@L5
Настройки формата : BVOP1 / Custom Matrix
Параметр BVOP формата : 1
Параметр QPel формата : Нет
Параметр GMC формата : Без точки перехода
Параметр матрицы формата : Выборочная
Идентификатор кодека : XVID
Идентификатор кодека/Подсказка : XviD
Продолжительность : 2 ч. 9 м.
Битрейт : 1 226 Кбит/сек
Ширина : 704 пикселя
Высота : 400 пикселей
Соотношение сторон : 16:9
Частота кадров : 24,000 кадра/сек
Цветовое пространство : YUV
Субдискретизация насыщенности : 4:2:0
Битовая глубина : 8 бит
Тип развёртки : Прогрессивная
Метод сжатия : С потерями
Бит/(Пиксели*Кадры) : 0.181
Размер потока : 1,11 Гбайт (76%)
Библиотека кодирования : XviD 73
Аудио
Идентификатор : 1
Формат : AC-3
Формат/Информация : Audio Coding 3
Коммерческое название : Dolby Digital
Идентификатор кодека : 2000
Продолжительность : 2 ч. 9 м.
Вид битрейта : Постоянный
Битрейт : 384 Кбит/сек
Каналы : 6 каналов
Channel layout : L R C LFE Ls Rs
Частота : 48,0 КГц
Частота кадров : 31,250 кадров/сек (1536 SPF)
Метод сжатия : С потерями
Размер потока : 355 Мбайт (24%)
Выравнивание : Разделение по промежуткам
Продолжительность промежутка : 42 мс. (1,00 видеокадр)
Время предзагрузки промежутка : 500 мс.
Service kind : Complete Main
Скриншоты:
Все одноименные релизы в КлубеВремя раздачи: 24/7 - круглосуточно (минимум до появления первых 3-5 скачавших)
[Профиль] [ЛС]
Показать сообщения:    
Ответить на тему

Текущее время: 22-Фев 01:45

Часовой пояс: UTC ± 0



Вы не можете начинать темы
Вы не можете отвечать на сообщения
Вы не можете редактировать свои сообщения
Вы не можете удалять свои сообщения
Вы не можете голосовать в опросах
Вы не можете прикреплять файлы к сообщениям
Вы не можете скачивать файлы

[  Время выполнения: 0,033 сек  |  MySQL: 0,003 сек (10%) · 5 запр.  |  GZIP выкл  |  Память: 421,85 KB / 1,72 MB / 1,32 MB  |  Лимит: 9 12 16  ]