Хитровка. Знак четырех (2023) WEBRip [H.264/720p]

Ответить на тему
 
Автор Сообщение

admin ®

Пол: Не указан

Стаж: 5 месяца 1 день

Сообщений: 10110

Создавать темы 30-Янв-2024 16:03

[Цитировать]

Хитровка. Знак четырех (2023) WEBRip [H.264/720p]- Производство: Россия | Курьер, Мосфильм
Жанр: детектив, комедия
Режиссер: Карен Шахназаров
Актеры: Константин Крюков, Михаил Пореченков, Алексей Вертков, Александр Олешко, Анфиса Черных, Евгений Стычкин, Борис Каморзин, Аюб Цингиев, Юлия Витрук, Денис Сладков
Описание:
Москва, 1902 год. Знаменитый режиссер Константин Станиславский в поисках вдохновения для постановки новой пьесы решает познакомиться с жизнью городского «дна». Он обращается за помощью к признанному знатоку московских трущоб Владимиру Гиляровскому. Вместе они отправляются на легендарную бандитскую Хитровку и оказываются втянуты в расследование убийства загадочного местного жителя — индийца-сикха с тёмным прошлым.

Возраст: 12+ (зрителям, достигшим 12 лет)
Продолжительность: 02:09:09
Качество видео: WEBRip (Кинопоиск HD)
Перевод: Не требуется (Русский)
Субтитры: Отсутствуют
Видео: AVC/H.264, 1280x720, ~4000 kbps
Аудио: Е-AC3, 6 ch, 448 Kbps

MediaInfo:

General
Complete name : Хитровка Знак четырех 2023 720p.mp4
Format : MPEG-4
Format profile : Base Media
Codec ID : isom (isom/iso2/avc1/mp41)
File size : 3.96 GiB
Duration : 2 h 9 min
Overall bit rate : 4 389 kb/s
Frame rate : 24.000 FPS
Video
ID : 1
Format : AVC
Format/Info : Advanced Video Codec
Format profile : Progressive High@L3.1
Format settings : CABAC / 5 Ref Frames
Format settings, CABAC : Yes
Format settings, Reference : 5 frames
Codec ID : avc1
Codec ID/Info : Advanced Video Coding
Duration : 2 h 9 min
Bit rate : 4 000 kb/s
Width : 1 280 pixels
Height : 720 pixels
Display aspect ratio : 16:9
Frame rate mode : Constant
Frame rate : 24.000 FPS
Color space : YUV
Chroma subsampling : 4:2:0
Bit depth : 8 bits
Scan type : Progressive
Bits/(Pixel*Frame) : 0.181
Stream size : 3.55 GiB (90%)
Writing library : x264 core 157
Encoding settings : cabac=1 / ref=5 / deblock=1:0:0 / analyse=0x3:0x133 / me=umh / subme=10 / psy=1 / psy_rd=1.00:0.00 / mixed_ref=1 / me_range=24 / chroma_me=1 / trellis=2 / 8x8dct=1 / cqm=0 / deadzone=21,11 / fast_pskip=1 / chroma_qp_offset=-2 / threads=22 / lookahead_threads=3 / sliced_threads=0 / nr=0 / decimate=1 / interlaced=0 / bluray_compat=0 / stitchable=1 / constrained_intra=0 / bframes=8 / b_pyramid=2 / b_adapt=2 / b_bias=0 / direct=3 / weightb=1 / open_gop=0 / weightp=2 / keyint=250 / keyint_min=24 / scenecut=40 / intra_refresh=0 / rc_lookahead=60 / rc=2pass / mbtree=1 / bitrate=4000 / ratetol=1.0 / qcomp=0.60 / qpmin=0 / qpmax=69 / qpstep=4 / cplxblur=20.0 / qblur=0.5 / vbv_maxrate=4400 / vbv_bufsize=8000 / nal_hrd=none / filler=0 / ip_ratio=1.40 / aq=1:1.00
Color range : Limited
Color primaries : BT.709
Transfer characteristics : BT.709
Matrix coefficients : BT.709
Codec configuration box : avcC
Audio
ID : 2
Format : E-AC-3
Format/Info : Enhanced AC-3
Commercial name : Dolby Digital Plus
Codec ID : ec-3
Duration : 2 h 9 min
Bit rate mode : Constant
Bit rate : 448 kb/s
Channel(s) : 6 channels
Channel layout : L R C LFE Ls Rs
Sampling rate : 48.0 kHz
Frame rate : 31.250 FPS (1536 SPF)
Compression mode : Lossy
Stream size : 414 MiB (10%)
Service kind : Complete Main
Default : Yes
Alternate group : 1
Скриншоты:
Все одноименные релизы в КлубеВремя раздачи: 24/7 (до 3-5 скачавших)
[Профиль] [ЛС]
Показать сообщения:    
Ответить на тему

Текущее время: 29-Фев 13:04

Часовой пояс: UTC ± 0



Вы не можете начинать темы
Вы не можете отвечать на сообщения
Вы не можете редактировать свои сообщения
Вы не можете удалять свои сообщения
Вы не можете голосовать в опросах
Вы не можете прикреплять файлы к сообщениям
Вы не можете скачивать файлы

[  Время выполнения: 0,037 сек  |  MySQL: 0,002 сек (7%) · 3 запр.  |  GZIP выкл  |  Память: 422,29 KB / 1,74 MB / 1,34 MB  |  Лимит: 14 17 18  ]