Хитровка. Знак четырех (2023) WEBRip [H.265/2160p] [4K, SDR, 10-bit]

Ответить на тему
 
Автор Сообщение

admin ®

Пол: Не указан

Стаж: 5 месяца

Сообщений: 10110

Создавать темы 30-Янв-2024 16:02

[Цитировать]

Хитровка. Знак четырех (2023) WEBRip [H.265/2160p]- Производство: Россия, Курьер, Мосфильм
Жанр: детектив, комедия
Режиссер: Карен Шахназаров
Продюсер: Карен Шахназаров, Галина Шадур
Актеры: Константин Крюков, Михаил Пореченков, Алексей Вертков, Александр Олешко, Анфиса Черных, Евгений Стычкин, Борис Каморзин, Аюб Цингиев, Юлия Витрук, Денис Сладков
Описание:
Москва, 1902 год. Знаменитый режиссер Константин Станиславский в поисках вдохновения для постановки новой пьесы решает познакомиться с жизнью городского «дна». Он обращается за помощью к признанному знатоку московских трущоб Владимиру Гиляровскому. Вместе они отправляются на легендарную бандитскую Хитровку и оказываются втянуты в расследование убийства загадочного местного жителя — индийца-сикха с тёмным прошлым.
Возраст: 12+ (зрителям, достигшим 12 лет)
Релиз от: 7turza
Продолжительность: 02:09:05
Качество видео: WEBRip
Перевод: Не требуется (Русский)
Субтитры: Отсутствуют
Видео: HEVC/H.265, 3840x2160, 19.4 Мbps
Аудио: Е-AC3, 6 ch, 448 Kbps

MediaInfo:

Общее
Уникальный идентификатор : 44354541041263715643577496493685940179 (0x215E5FB657F4ED1F7909FF615D3B1FD3)
Полное имя : D:\Hitrovka.Znak.chetyrekh.2023.WEB-DL.2160p.SDR.mkv
Формат : Matroska
Версия формата : Version 4
Размер файла : 17,9 Гбайт
Продолжительность : 2 ч. 9 м.
Общий поток : 19,8 Мбит/сек
Название фильма : Hitrovka.Znak.chetyrekh.2023.WEB-DL.2160p.SDR
Дата кодирования : UTC 2023-07-19 16:41:03
Программа кодирования : mkvmerge v78.0 ('Running') 64-bit
Библиотека кодирования : libebml v1.4.4 + libmatroska v1.7.1
Attachments : poster.jpg
Видео
Идентификатор : 1
Формат : HEVC
Формат/Информация : High Efficiency Video Coding
Профиль формата : Main 10@L5@High
Идентификатор кодека : V_MPEGH/ISO/HEVC
Продолжительность : 2 ч. 9 м.
Битрейт : 19,4 Мбит/сек
Ширина : 3 840 пикселей
Высота : 2 160 пикселей
Соотношение сторон : 16:9
Режим частоты кадров : Постоянный
Частота кадров : 24,000 кадра/сек
Цветовое пространство : YUV
Субдискретизация насыщенности : 4:2:0
Битовая глубина : 10 бит
Бит/(Пиксели*Кадры) : 0.097
Размер потока : 17,5 Гбайт (98%)
Библиотека кодирования : x265 2.6:[Linux][GCC 7.5.0][64 bit] 10bit
Настройки программы : cpuid=1173503 / frame-threads=6 / wpp / no-pmode / no-pme / no-psnr / no-ssim / log-level=2 / input-csp=1 / input-res=3840x2160 / interlace=0 / total-frames=0 / level-idc=50 / high-tier=1 / uhd-bd=0 / ref=3 / no-allow-non-conformance / repeat-headers / annexb / no-aud / no-hrd / info / hash=0 / no-temporal-layers / no-open-gop / min-keyint=48 / keyint=48 / bframes=3 / b-adapt=2 / b-pyramid / bframe-bias=0 / rc-lookahead=20 / lookahead-slices=8 / scenecut=0 / no-intra-refresh / ctu=64 / min-cu-size=8 / no-rect / no-amp / max-tu-size=32 / tu-inter-depth=1 / tu-intra-depth=1 / limit-tu=0 / rdoq-level=0 / dynamic-rd=0.00 / no-ssim-rd / signhide / no-tskip / nr-intra=0 / nr-inter=0 / constrained-intra / strong-intra-smoothing / max-merge=2 / limit-refs=3 / no-limit-modes / me=1 / subme=2 / merange=80 / temporal-mvp / weightp / no-weightb / no-analyze-src-pics / deblock=0:0 / sao / no-sao-non-deblock / rd=3 / no-early-skip / rskip / no-fast-intra / no-tskip-fast / no-cu-lossless / no-b-intra / no-splitrd-skip / rdpenalty=0 / psy-rd=2.00 / psy-rdoq=0.00 / no-rd-refine / analysis-reuse-mode=0 / no-lossless / cbqpoffs=0 / crqpoffs=0 / rc=abr / bitrate=20000 / qcomp=0.60 / qpstep=4 / stats-write=0 / stats-read=0 / vbv-maxrate=30000 / vbv-bufsize=60000 / vbv-init=0.9 / ipratio=1.40 / pbratio=1.30 / aq-mode=1 / aq-strength=1.00 / cutree / zone-count=0 / no-strict-cbr / qg-size=32 / no-rc-grain / qpmax=69 / qpmin=0 / no-const-vbv / sar=1 / overscan=0 / videoformat=5 / range=0 / colorprim=2 / transfer=2 / colormatrix=2 / chromaloc=0 / display-window=0 / max-cll=0,0 / min-luma=0 / max-luma=1023 / log2-max-poc-lsb=8 / vui-timing-info / vui-hrd-info / slices=1 / no-opt-qp-pps / no-opt-ref-list-length-pps / no-multi-pass-opt-rps / scenecut-bias=0.05 / no-opt-cu-delta-qp / no-aq-motion / no-hdr / no-hdr-opt / no-dhdr10-opt / analysis-reuse-level=5 / scale-factor=0 / refine-intra=0 / refine-inter=0 / refine-mv=0 / no-limit-sao / ctu-info=0 / no-lowpass-dct / refine-mv-type=0 / copy-pic=1
Default : Да
Forced : Нет
Аудио
Идентификатор : 2
Формат : E-AC-3
Формат/Информация : Enhanced AC-3
Коммерческое название : Dolby Digital Plus
Идентификатор кодека : A_EAC3
Продолжительность : 2 ч. 9 м.
Вид битрейта : Постоянный
Битрейт : 448 Кбит/сек
Каналы : 6 каналов
Channel layout : L R C LFE Ls Rs
Частота : 48,0 КГц
Частота кадров : 31,250 кадров/сек (1536 SPF)
Метод сжатия : С потерями
Размер потока : 414 Мбайт (2%)
Заголовок : [Original | 5.1 E-AC3 Audio]
Язык : Russian
Service kind : Complete Main
Default : Да
Forced : Нет
Скриншоты:
Все одноименные релизы в КлубеВремя раздачи: 24/7 (мультитрекер)
[Профиль] [ЛС]
Показать сообщения:    
Ответить на тему

Текущее время: 28-Фев 23:50

Часовой пояс: UTC ± 0



Вы не можете начинать темы
Вы не можете отвечать на сообщения
Вы не можете редактировать свои сообщения
Вы не можете удалять свои сообщения
Вы не можете голосовать в опросах
Вы не можете прикреплять файлы к сообщениям
Вы не можете скачивать файлы

[  Время выполнения: 0,037 сек  |  MySQL: 0,003 сек (9%) · 5 запр.  |  GZIP выкл  |  Память: 422,29 KB / 1,73 MB / 1,34 MB  |  Лимит: 8 9 9  ]