Микулай (2023) WEBRip [H.264/1080p]

Ответить на тему
 
Автор Сообщение

admin ®

Пол: Не указан

Стаж: 5 месяца

Сообщений: 10110

Создавать темы 30-Янв-2024 16:02

[Цитировать]

Микулай (2023) WEBRip [H.264/1080p]«Насколько реален твой мир?»- Производство: Россия / Проспект Мира
Жанр: триллер, драма
Режиссер: Ильшат Рахимбай
Продюсер: Ильшат Рахимбай, Анна Добронравова, Надежда Дорожкина
Актеры: Виктор Сухоруков, Иван Добронравов, Екатерина Агеева, Варвара Шмыкова, Анжелика Ермакова
Описание:
Микулай счастливо жил с молодой беременной женой, пожилыми родителями и бесконечно уважающими его односельчанами. Пока однажды в их деревушку не приехал человек, утверждавший, что он — сын Микулая. Идеальная жизнь начала трещать по швам.
Возраст: 18+ (зрителям, достигшим 18 лет. запрещено для детей)
Релиз от: Soft-Torrent - торрент игры программы фильмы книги скачать|karfagen1975
Продолжительность: 01:49:20
Качество видео: WEBRip
Язык озвучки: Русский
Субтитры: Русские (forced, hardsub, на татарский язык)
Видео: AVC/H.264, 1920x804, ~6000 Kbps
Аудио: AAC, 2 ch, 192 Kbps - Русский

MediaInfo:

General
Unique ID : 179957825882895327859246246594229868250 (0x87629DD6D76474A5B4E965A2822496DA)
Complete name : Микулай (2023) WEB-DL 1080p Soft-Torrent - торрент игры программы фильмы книги скачать.mkv
Format : Matroska
Format version : Version 4
File size : 4.72 GiB
Duration : 1 h 49 min
Overall bit rate : 6 177 kb/s
Frame rate : 24.000 FPS
Encoded date : 2023-07-20 13:15:36 UTC
Writing application : mkvmerge v75.0.0 ('Goliath') 64-bit
Writing library : libebml v1.4.4 + libmatroska v1.7.1
Video
ID : 1
Format : AVC
Format/Info : Advanced Video Codec
Format profile : Progressive High@L4
Format settings : CABAC / 5 Ref Frames
Format settings, CABAC : Yes
Format settings, Reference frames : 5 frames
Codec ID : V_MPEG4/ISO/AVC
Duration : 1 h 49 min
Bit rate : 6 000 kb/s
Width : 1 920 pixels
Height : 804 pixels
Display aspect ratio : 2.40:1
Frame rate mode : Constant
Frame rate : 24.000 FPS
Color space : YUV
Chroma subsampling : 4:2:0
Bit depth : 8 bits
Scan type : Progressive
Bits/(Pixel*Frame) : 0.162
Stream size : 4.57 GiB (97%)
Title : Микулай (2023) WEB-DL 1080p Soft-Torrent - торрент игры программы фильмы книги скачать
Writing library : x264 core 157
Encoding settings : cabac=1 / ref=5 / deblock=1:0:0 / analyse=0x3:0x133 / me=umh / subme=10 / psy=1 / psy_rd=1.00:0.00 / mixed_ref=1 / me_range=24 / chroma_me=1 / trellis=2 / 8x8dct=1 / cqm=0 / deadzone=21,11 / fast_pskip=1 / chroma_qp_offset=-2 / threads=25 / lookahead_threads=4 / sliced_threads=0 / nr=0 / decimate=1 / interlaced=0 / bluray_compat=0 / stitchable=1 / constrained_intra=0 / bframes=8 / b_pyramid=2 / b_adapt=2 / b_bias=0 / direct=3 / weightb=1 / open_gop=0 / weightp=2 / keyint=250 / keyint_min=24 / scenecut=40 / intra_refresh=0 / rc_lookahead=60 / rc=2pass / mbtree=1 / bitrate=6000 / ratetol=1.0 / qcomp=0.60 / qpmin=0 / qpmax=69 / qpstep=4 / cplxblur=20.0 / qblur=0.5 / vbv_maxrate=6600 / vbv_bufsize=12000 / nal_hrd=none / filler=0 / ip_ratio=1.40 / aq=1:1.00
Language : Russian
Default : Yes
Forced : No
Audio
ID : 2
Format : AAC LC
Format/Info : Advanced Audio Codec Low Complexity
Codec ID : A_AAC-2
Duration : 1 h 49 min
Bit rate : 192 kb/s
Channel(s) : 2 channels
Channel layout : L R
Sampling rate : 48.0 kHz
Frame rate : 46.875 FPS (1024 SPF)
Compression mode : Lossy
Stream size : 151 MiB (3%)
Language : Russian
Default : Yes
Forced : No

Знаете ли вы, что…

Кряшены – этноконфессиональная группа в составе татар волжского и уральского регионов, исповедуют православие. Церковная служба у них ведётся на татарском языке, православные имена тоже произносятся на татарский лад.
Изначально в фильме должен был играть только один актер, так как сценарий написан по мотивам монодрамы.
Но Тимур Бекмамбетов посоветовал режиссеру Ильшату Рахимбаю превратить его в триллер. Так герои воспоминаний старика Микулая стали полноценными персонажами.
Екатерина Агеева пыталась выучить татарский язык для своей роли.
Часть бюджета собирали на краудфандинговой платформе.
Скриншоты:

Дополнительные скриншоты:

Все одноименные релизы в КлубеВремя раздачи: 24/7 (круглосуточно) (минимум до появления первых 3-5 скачавших)
[Профиль] [ЛС]
Показать сообщения:    
Ответить на тему

Текущее время: 28-Фев 22:00

Часовой пояс: UTC ± 0



Вы не можете начинать темы
Вы не можете отвечать на сообщения
Вы не можете редактировать свои сообщения
Вы не можете удалять свои сообщения
Вы не можете голосовать в опросах
Вы не можете прикреплять файлы к сообщениям
Вы не можете скачивать файлы

[  Время выполнения: 0,043 сек  |  MySQL: 0,002 сек (6%) · 3 запр.  |  GZIP выкл  |  Память: 422,29 KB / 1,74 MB / 1,36 MB  |  Лимит: 23 20 18  ]