Хитровка. Знак четырех (2023) WEBRip [H.264]

Ответить на тему
 
Автор Сообщение

admin ®

Пол: Не указан

Стаж: 7 месяца 26 дня

Сообщений: 11520

Создавать темы 30-Янв-2024 16:02

[Цитировать]

Хитровка. Знак четырех (2023) WEBRip [H.264]- Производство: Россия, Курьер, Мосфильм
Жанр: детектив, комедия
Режиссер: Карен Шахназаров
Продюсер: Карен Шахназаров, Галина Шадур
Актеры: Константин Крюков, Михаил Пореченков, Алексей Вертков, Александр Олешко, Анфиса Черных, Евгений Стычкин, Борис Каморзин, Аюб Цингиев, Юлия Витрук, Денис Сладков
Описание:
Москва, 1902 год. Знаменитый режиссер Константин Станиславский в поисках вдохновения для постановки новой пьесы решает познакомиться с жизнью городского «дна». Он обращается за помощью к признанному знатоку московских трущоб Владимиру Гиляровскому. Вместе они отправляются на легендарную бандитскую Хитровку и оказываются втянуты в расследование убийства загадочного местного жителя - индийца-сикха с тёмным прошлым.
Возраст: 12+ (зрителям, достигшим 12 лет)
Продолжительность: 02:09:05
Качество видео: WEBRip
Субтитры: отсутствуют
Видео: AVC/H.264, 720x404, ~1250 Kbps
Аудио: AAC, 6 ch, 320 Kbps | Русский

MediaInfo:

Общее
Уникальный идентификатор : 212248762300647195186272885673906429908 (0x9FAD9FEC2B1F507DCFA7E27793045FD4)
Полное имя : Хитровка (2023) WEBRip (720x404) AVC.mkv
Формат : Matroska
Версия формата : Version 4 / Version 2
Размер файла : 1,41 Гбайт
Продолжительность : 2 ч. 9 м.
Общий поток : 1568 Кбит/сек
Название фильма : Хитровка. Знак четырех (2023)
Дата кодирования : UTC 2023-07-20 01:50:50
Программа кодирования : mkvmerge v56.1.0 ('My Friend') 64-bit
Библиотека кодирования : libebml v1.4.2 + libmatroska v1.6.4
Видео
Идентификатор : 1
Формат : AVC
Формат/Информация : Advanced Video Codec
Профиль формата : High@L3.1
Настройки формата : CABAC / 8 Ref Frames
Параметр CABAC формата : Да
Параметр RefFrames формата : 8 кадров
Идентификатор кодека : V_MPEG4/ISO/AVC
Продолжительность : 2 ч. 9 м.
Битрейт : 1246 Кбит/сек
Ширина : 720 пикселей
Высота : 404 пикселя
Соотношение сторон : 16:9
Режим частоты кадров : Постоянный
Частота кадров : 24,000 кадра/сек
Цветовое пространство : YUV
Субдискретизация насыщенности : 4:2:0
Битовая глубина : 8 бит
Тип развёртки : Прогрессивная
Бит/(Пиксели*Кадры) : 0.178
Размер потока : 1,12 Гбайт (79%)
Default : Да
Forced : Нет
Цветовой диапазон : Limited
Основные цвета : BT.709
Характеристики трансфера : BT.709
Коэффициенты матрицы : BT.709
Аудио
Идентификатор : 2
Формат : AAC
Формат/Информация : Advanced Audio Codec
Профиль формата : LC
Идентификатор кодека : A_AAC-2
Продолжительность : 2 ч. 9 м.
Битрейт : 320 Кбит/сек
Каналы : 6 каналов
Расположение каналов : Front: L C R, Side: L R, LFE
Частота : 48,0 КГц
Частота кадров : 46,875 кадров/сек (1024 SPF)
Метод сжатия : С потерями
Задержка видео : 20 мс.
Размер потока : 296 Мбайт (20%)
Заголовок : Русский 5.1
Язык : Russian
Default : Да
Forced : Нет
Скриншоты:
Все одноименные релизы в КлубеВремя раздачи: 24/7 (до 3 скачавших)
[Профиль] [ЛС]
Показать сообщения:    
Ответить на тему

Текущее время: 24-Май 13:15

Часовой пояс: UTC ± 0



Вы не можете начинать темы
Вы не можете отвечать на сообщения
Вы не можете редактировать свои сообщения
Вы не можете удалять свои сообщения
Вы не можете голосовать в опросах
Вы не можете прикреплять файлы к сообщениям
Вы не можете скачивать файлы

[  Время выполнения: 0,033 сек  |  MySQL: 0,003 сек (9%) · 3 запр.  |  GZIP выкл  |  Память: 422,29 KB / 1,72 MB / 1,32 MB  |  Лимит: 18 14 10  ]