Девичник: Убойная ночь / Fear the Night (2023) WEB-DLRip [H.264/1080p] [MVO, AD]

Ответить на тему
 
Автор Сообщение

admin ®

Пол: Не указан

Стаж: 4 месяца 23 дня

Сообщений: 10110

Создавать темы 30-Янв-2024 16:02

[Цитировать]

Девичник: Убойная ночь / Fear the Night (2023) WEB-DLRip [H.264/1080p] «Сражайся до рассвета»- Производство: США / BondIt, Buffalo 8 Productions, Quiver Distribution
Жанр: боевик, триллер
Режиссер: Нил Лабут
Продюсер: Эрик Бреннер, Лоуренс Гринберг, Лукас Джарач и др.
Актеры: Мэгги Кью, Ито Агайере, Джеймс Карпинелло, Джиа Кроватин, Кэт Фостер, Трейса Гари, Трэвис Хаммер, Кейлин Даррел Джонс, Хайди Куан, Кирстин Ли
Описание:
Восемь девушек отправляются на девичник на отдаленной ферме в Калифорнийских холмах. Во время вечеринки злоумышленники в масках окружают дом и начинают обстреливать гостей. Одна из тусовщиц Тесс, ветеран иракской войны, которая преодолевает свои травмы и борется с трудностями в общении с людьми, берет на себя руководство в противостоянии нападающим и пытается защитить себя и других в эту темную ночь.
Возраст: 18+ (зрителям, достигшим 18 лет. запрещено для детей)
Продолжительность: 01:32:37
Качество видео: WEB-DLRip 1080p
Перевод: Многоголосый любительский (AlphaProject)
Язык озвучки: Русский
Субтитры: Отсутствуют
Реклама: Присутствует баннер, вставки аудио и видео рекламы
Видео: AVC/H.264, 1920x800, ~6236 Kbps
Аудио: AC3, 2 ch, 384 Kbps

MediaInfo:

General
Unique ID : 217076164894042411086409096316957999441 (0xA34F593F0B240B22AB6B7D3D0BABC151)
Complete name : F:\Torrents\Soft-Torrent - торрент игры программы фильмы книги скачать\Fear.the.Night.2023.Pa.WEB-DLRip.1080p.Soft-Torrent - торрент игры программы фильмы книги скачать.mkv
Format : Matroska
Format version : Version 4
File size : 4.28 GiB
Duration : 1 h 32 min
Overall bit rate mode : Constant
Overall bit rate : 6 622 kb/s
Encoded date : UTC 2023-07-24 16:44:23
Writing application : mkvmerge v72.0.0 ('Minuano (Six-eight)') 64-bit
Writing library : libebml v1.4.4 + libmatroska v1.7.1
Video
ID : 1
Format : AVC
Format/Info : Advanced Video Codec
Format profile : High@L4.1
Format settings : CABAC / 4 Ref Frames
Format settings, CABAC : Yes
Format settings, Reference frames : 4 frames
Codec ID : V_MPEG4/ISO/AVC
Duration : 1 h 32 min
Bit rate mode : Constant
Bit rate : 6 236 kb/s
Nominal bit rate : 7 000 kb/s
Width : 1 920 pixels
Height : 800 pixels
Display aspect ratio : 2.40:1
Frame rate mode : Constant
Frame rate : 23.976 (24000/1001) FPS
Standard : Component
Color space : YUV
Chroma subsampling : 4:2:0
Bit depth : 8 bits
Scan type : Progressive
Bits/(Pixel*Frame) : 0.169
Stream size : 4.03 GiB (94%)
Writing library : x264 core 155
Encoding settings : cabac=1 / ref=4 / deblock=1:0:0 / analyse=0x3:0x3 / me=dia / subme=1 / psy=1 / psy_rd=1.00:0.00 / mixed_ref=0 / me_range=16 / chroma_me=1 / trellis=0 / 8x8dct=1 / cqm=1 / deadzone=21,11 / fast_pskip=1 / chroma_qp_offset=0 / threads=25 / lookahead_threads=4 / sliced_threads=0 / slices=1 / nr=0 / decimate=1 / interlaced=0 / minigop=0 / stitchable=1 / constrained_intra=0 / bframes=0 / weightp=0 / keyint=240 / keyint_min=23 / scenecut=0 / intra_refresh=0 / rc_lookahead=0 / rc=cbr / mbtree=0 / bitrate=7000 / ratetol=1.0 / qcomp=0.60 / qpmin=1 / qpmax=69 / qpstep=4 / vbv_maxrate=7000 / vbv_bufsize=7000 / nal_hrd=cbr / filler=1 / ip_ratio=1.40 / aq=1:1.00
Default : Yes
Forced : No
Color range : Limited
Color primaries : BT.709
Transfer characteristics : BT.709
Matrix coefficients : BT.709
Audio
ID : 2
Format : AC-3
Format/Info : Audio Coding 3
Commercial name : Dolby Digital
Codec ID : A_AC3
Duration : 1 h 32 min
Bit rate mode : Constant
Bit rate : 384 kb/s
Channel(s) : 2 channels
Channel layout : L R
Sampling rate : 48.0 kHz
Frame rate : 31.250 FPS (1536 SPF)
Compression mode : Lossy
Stream size : 254 MiB (6%)
Language : Russian
Service kind : Complete Main
Default : Yes
Forced : No
Скриншоты:
Все одноименные релизы в КлубеВремя раздачи: 24/7 (минимум до появления первых 3-5 скачавших)
[Профиль] [ЛС]
Показать сообщения:    
Ответить на тему

Текущее время: 22-Фев 01:07

Часовой пояс: UTC ± 0



Вы не можете начинать темы
Вы не можете отвечать на сообщения
Вы не можете редактировать свои сообщения
Вы не можете удалять свои сообщения
Вы не можете голосовать в опросах
Вы не можете прикреплять файлы к сообщениям
Вы не можете скачивать файлы

[  Время выполнения: 0,031 сек  |  MySQL: 0,002 сек (7%) · 3 запр.  |  GZIP выкл  |  Память: 421,85 KB / 1,73 MB / 1,34 MB  |  Лимит: 19 19 19  ]