Мизантроп / Misanthrope / To Catch A Killer (2023) WEB-DLRip [Line, AD]

Ответить на тему
 
Автор Сообщение

admin ®

Пол: Не указан

Стаж: 4 месяца 23 дня

Сообщений: 10110

Создавать темы 30-Янв-2024 16:02

[Цитировать]

Мизантроп / Misanthrope / To Catch A Killer (2023) WEB-DLRip - Производство: США / FilmNation Entertainment, RainMaker Films
Жанр: боевик, триллер, драма, криминал, детектив
Режиссер: Дамиан Сифрон
Актеры: Шейлин Вудли, Бен Мендельсон, Джован Адепо, Ральф Айнесон, Ричард Земан, Душан Дукич, Джейсон Кавалье, Ник Уокер, Дарси Лори, Марк Камачо
Описание:
Новогодняя ночь в Балтиморе омрачается серией убийств. Стрелок-маньяк, не оставляющий следов, забрал десятки жизней под гром фейерверков прямо в центре города. В любой момент он может снова выйти на охоту, а у главного следователя ФБР Ламмарка нет ни одной зацепки. Заметив потенциал в молодой полицейской Элеанор, благодаря её профессиональным действиям и глубокому пониманию характера убийцы, Ламмарк подключает её к расследованию. Теперь их задача — угнаться за психопатом по спирали разрушения.
Возраст: 18+ (зрителям, достигшим 18 лет. запрещено для детей)
Рейтинг MPAA: R (лицам до 17 лет обязательно присутствие взрослого)
Продолжительность: 02:00:23
Качество видео: WEB-DLRip
Перевод: Дублированный (Чистый звук)
Язык озвучки: Русский
Субтитры: отсутствуют
Реклама: Присутствуют вставки аудио и видео рекламы + баннер
Видео: Xvid, 720х304, ~2040 kbps
Аудио: AC3, 2 ch, 384 kbps

MediaInfo:

General
Complete name : D:\ЗАКАЧКИ с ТОРРЕНТОВ\Мизантроп.2023.Дчз.WEB-DLRip.avi
Format : AVI
Format/Info : Audio Video Interleave
Format profile : OpenDML
File size : 2.05 GiB
Duration : 2 h 0 min
Overall bit rate : 2 436 kb/s
Writing application : VirtualDubMod 1.5.10.3 | www.virtualdub-fr.org || (build 2550/release)
Writing library : VirtualDubMod build 2550/release
Video
ID : 0
Format : MPEG-4 Visual
Format profile : Advanced Simple@L5
Format settings : BVOP2 / Custom Matrix
Format settings, BVOP : 2
Format settings, QPel : No
Format settings, GMC : No warppoints
Format settings, Matrix : Custom
Codec ID : XVID
Codec ID/Hint : XviD
Duration : 2 h 0 min
Bit rate : 2 040 kb/s
Width : 720 pixels
Height : 304 pixels
Display aspect ratio : 2.35:1
Frame rate : 23.976 (24000/1001) FPS
Color space : YUV
Chroma subsampling : 4:2:0
Bit depth : 8 bits
Scan type : Progressive
Compression mode : Lossy
Bits/(Pixel*Frame) : 0.389
Stream size : 1.72 GiB (84%)
Writing library : XviD 1.2.1 (UTC 2008-12-04)
Audio
ID : 1
Format : AC-3
Format/Info : Audio Coding 3
Commercial name : Dolby Digital
Codec ID : 2000
Duration : 2 h 0 min
Bit rate mode : Constant
Bit rate : 384 kb/s
Channel(s) : 2 channels
Channel layout : L R
Sampling rate : 48.0 kHz
Frame rate : 31.250 FPS (1536 SPF)
Compression mode : Lossy
Stream size : 331 MiB (16%)
Alignment : Split across interleaves
Interleave, duration : 42 ms (1.00 video frame)
Interleave, preload duratio : 500 ms
Service kind : Complete Main
Скриншоты:
Все одноименные релизы в КлубеВремя раздачи: 24/7 (минимум до появления первых 3-5 скачавших) (минимум до появления первых 3-5 скачавших)
[Профиль] [ЛС]
Показать сообщения:    
Ответить на тему

Текущее время: 22-Фев 01:24

Часовой пояс: UTC ± 0



Вы не можете начинать темы
Вы не можете отвечать на сообщения
Вы не можете редактировать свои сообщения
Вы не можете удалять свои сообщения
Вы не можете голосовать в опросах
Вы не можете прикреплять файлы к сообщениям
Вы не можете скачивать файлы

[  Время выполнения: 0,034 сек  |  MySQL: 0,003 сек (9%) · 3 запр.  |  GZIP выкл  |  Память: 421,85 KB / 1,73 MB / 1,33 MB  |  Лимит: 19 19 19  ]