Помилование (2023) WEBRip [H.264/1080p]

Ответить на тему
 
Автор Сообщение

admin ®

Пол: Не указан

Стаж: 4 месяца 27 дня

Сообщений: 10110

Создавать темы 30-Янв-2024 16:01

[Цитировать]

Помилование (2023) WEBRip [H.264/1080p] - Производство: Россия, Мотор Фильм Студия
Жанр: драма, военный
Режиссер: Айнур Аскаров
Актеры: Александр Новиков, Николай Галлямов, Евгений Михеев, Джамиля Мударисова, Гела Месхи, Александр Бухаров, Любовь Зайцева, Юрий Лопарев, Михаил Хмуров, Гузель Хасанова
Описание:
Лето 1942 года. Под Сталинградом начинается жесточайшее сражение, исход которого решит судьбу всего мира… Ещё не нюхавший пороха двадцатилетний сержант Любомир Зух отлучился из своей части в прифронтовой зоне, чтобы проститься с любимой девушкой.​ Всего три часа его не было в части!​ Но по законам военного времени он дезертир. И наказание за это одно — расстрел.​ ​Приговор слишком суров, и это понимают все. Остановится ли маховик военной машины, будет ли приказ о помиловании?
Возраст: 12+ (зрителям, достигшим 12 лет)
Релиз от: ELEKTRI4KA & UNIONGANG
Продолжительность: 01:40:31
Качество видео: WEBRip
Перевод: Не требуется (русский)
Субтитры: Отсутствуют
Видео: AVC/H.264, 1920x798, ~5120 Kbps
Аудио 1: AC3, 6 ch, 384 Kbps
Аудио 2: AAC, 6 ch, 512 Kbps

MediaInfo:

Общее
Уникальный идентификатор : 190951237088858113087060944925080963029 (0x8FA7DEDBE348122EBBACBBBBE3EC47D5)
Полное имя : D:\Soft-Torrent - торрент игры программы фильмы книги скачать\Pomilovanie.2023.WEB-DL.1080p.ELEKTRI4KA.UNIONGANG.mkv
Формат : Matroska
Версия формата : Version 4
Размер файла : 4,22 Гбайт
Продолжительность : 1 ч. 40 м.
Общий поток : 6 004 Кбит/сек
Частота кадров : 24,000 кадра/сек
Название фильма : Pomilovanie.2023.WEB-DL.1080p.ELEKTRI4KA.UNIONGANG.
Дата кодирования : 2023-06-21 22:42:35 UTC
Программа кодирования : mkvmerge v8.3.0 ('Over the Horizon') 64bit
Библиотека кодирования : libebml v1.3.1 + libmatroska v1.4.2
Видео
Идентификатор : 1
Формат : AVC
Формат/Информация : Advanced Video Codec
Профиль формата : High@L4
Настройки формата : CABAC / 4 Ref Frames
Параметр CABAC формата : Да
Параметр RefFrames формата : 4 кадра
Идентификатор кодека : V_MPEG4/ISO/AVC
Продолжительность : 1 ч. 40 м.
Битрейт : 5 120 Кбит/сек
Ширина : 1 920 пикселей
Высота : 798 пикселей
Соотношение сторон : 2,40:1
Режим частоты кадров : Постоянный
Частота кадров : 24,000 кадра/сек
Цветовое пространство : YUV
Субдискретизация насыщенности : 4:2:0
Битовая глубина : 8 бит
Тип развёртки : Прогрессивная
Бит/(Пиксели*Кадры) : 0.139
Размер потока : 3,58 Гбайт (85%)
Библиотека кодирования : x264 core 152 r2854 e9a5903
Настройки программы : cabac=1 / ref=3 / deblock=1:0:0 / analyse=0x3:0x113 / me=hex / subme=7 / psy=1 / psy_rd=1.00:0.00 / mixed_ref=1 / me_range=16 / chroma_me=1 / trellis=1 / 8x8dct=1 / cqm=0 / deadzone=21,11 / fast_pskip=1 / chroma_qp_offset=-2 / threads=25 / lookahead_threads=4 / sliced_threads=0 / nr=0 / decimate=1 / interlaced=0 / bluray_compat=0 / constrained_intra=0 / bframes=6 / b_pyramid=2 / b_adapt=1 / b_bias=0 / direct=1 / weightb=1 / open_gop=0 / weightp=2 / keyint=48 / keyint_min=25 / scenecut=0 / intra_refresh=0 / rc_lookahead=40 / rc=2pass / mbtree=1 / bitrate=5120 / ratetol=1.0 / qcomp=0.60 / qpmin=0 / qpmax=69 / qpstep=4 / cplxblur=20.0 / qblur=0.5 / vbv_maxrate=7680 / vbv_bufsize=20480 / nal_hrd=none / filler=0 / ip_ratio=1.40 / aq=1:1.00
Default : Да
Forced : Нет
Аудио #1
Идентификатор : 2
Формат : AC-3
Формат/Информация : Audio Coding 3
Коммерческое название : Dolby Digital
Идентификатор кодека : A_AC3
Продолжительность : 1 ч. 40 м.
Вид битрейта : Постоянный
Битрейт : 384 Кбит/сек
Каналы : 6 каналов
Channel layout : L R C LFE Ls Rs
Частота : 48,0 КГц
Частота кадров : 31,250 кадров/сек (1536 SPF)
Метод сжатия : С потерями
Размер потока : 276 Мбайт (6%)
Заголовок : Original AC3 (IVI)
Язык : Russian
Service kind : Complete Main
Default : Да
Forced : Да
Аудио #2
Идентификатор : 3
Формат : AAC LC
Формат/Информация : Advanced Audio Codec Low Complexity
Идентификатор кодека : A_AAC-2
Продолжительность : 1 ч. 40 м.
Битрейт : 512 Кбит/сек
Каналы : 6 каналов
Channel layout : C L R Ls Rs LFE
Частота : 48,0 КГц
Частота кадров : 46,875 кадров/сек (1024 SPF)
Метод сжатия : С потерями
Размер потока : 368 Мбайт (9%)
Заголовок : Original AAC (IVI)
Язык : Russian
Default : Нет
Forced : Нет

avdump

File: D:\Soft-Torrent - торрент игры программы фильмы книги скачать\Pomilovanie.2023.WEB-DL.1080p.ELEKTRI4KA.UNIONGANG.mkv
Duration: 01:40:31 (6030.72)
Track #1: video
lang: und (1)
codc: V_MPEG4/ISO/AVC -> H264/AVC (22)
reso: 1920x798 -> Unknown (aka not common)
fram: 24 fps
rate: 5105 kbps (5105.22)
dura: 01:40:31 (6030.58)
size: 3.58 GB (3848429078)
Track #2: audio (Original AC3 (IVI))
lang: rus -> Russian (15)
codc: A_AC3 -> AC3 (2)
chan: 6 -> 5.1 Surround
samp: 48000 Hz
rate: 384 kbps (384.04)
dura: 01:40:31 (6030.56)
size: 276.09 MB (289499093)
Track #3: audio (Original AAC (IVI))
lang: rus -> Russian (15)
codc: A_AAC -> AAC (9)
chan: 6 -> 5.1 Surround
samp: 48000 Hz
rate: 512 kbps (512.49)
dura: 01:40:31 (6030.57)
size: 368.43 MB (386324934)
Sizes: (check sanity)
disk: 4.22 GB (4525864658)
trac: 4.21 GB (4524253105) [based on track size]
bitr: 4.21 GB (4524254605) [based on bitrate]
tdif: 1.54 MB (1611553) 0.03%
bdif: 1.54 MB (1610052) 0.03%
Скриншоты:
Все одноименные релизы в КлубеВремя раздачи: 24/7 (мультитрекерная раздача)
[Профиль] [ЛС]
Показать сообщения:    
Ответить на тему

Текущее время: 25-Фев 19:16

Часовой пояс: UTC ± 0



Вы не можете начинать темы
Вы не можете отвечать на сообщения
Вы не можете редактировать свои сообщения
Вы не можете удалять свои сообщения
Вы не можете голосовать в опросах
Вы не можете прикреплять файлы к сообщениям
Вы не можете скачивать файлы

[  Время выполнения: 0,040 сек  |  MySQL: 0,003 сек (7%) · 3 запр.  |  GZIP выкл  |  Память: 422,29 KB / 1,75 MB / 1,37 MB  |  Лимит: 15 15 17  ]