Помилование (2023) WEBRip [H.264]

Ответить на тему
 
Автор Сообщение

admin ®

Пол: Не указан

Стаж: 4 месяца 23 дня

Сообщений: 10110

Создавать темы 30-Янв-2024 16:01

[Цитировать]

Помилование (2023) WEBRip [H.264] - Производство: Россия, Мотор Фильм Студия
Жанр: драма, военный
Режиссер: Айнур Аскаров
Актеры: Александр Новиков, Николай Галлямов, Евгений Михеев, Джамиля Мударисова, Гела Месхи, Александр Бухаров, Любовь Зайцева, Юрий Лопарев, Михаил Хмуров, Гузель Хасанова
Описание:
Лето 1942 года. Под Сталинградом начинается жесточайшее сражение, исход которого решит судьбу всего мира… Ещё не нюхавший пороха двадцатилетний сержант Любомир Зух отлучился из своей части в прифронтовой зоне, чтобы проститься с любимой девушкой.​ Всего три часа его не было в части!​ Но по законам военного времени он дезертир. И наказание за это одно — расстрел.​ Приговор слишком суров, и это понимают все. Остановится ли маховик военной машины, будет ли приказ о помиловании?
Возраст: 12+ (зрителям, достигшим 12 лет)
Релиз от: Megapeer
Продолжительность: 01:40:31
Качество видео: WEBRip
Перевод: Не требуется (русский)
Субтитры: Отсутствуют
Видео: AVC/H.264, 1024x426, ~1692 Kbps
Аудио: AC3, 6 ch, 384 Kbps

MediaInfo:

Общее
Уникальный идентификатор : 189554094066451357079607264005310390444 (0x8E9ACA63BCDD764D944C0A93496420AC)
Полное имя : Pomilovaniye.2023.RUS.WEBDL.DD5.1.x264.MegaPeer.mkv
Формат : Matroska
Версия формата : Version 4
Размер файла : 1,46 Гбайт
Продолжительность : 1 ч. 40 м.
Общий поток : 2 077 Кбит/сек
Название фильма : Помилование (2023) от stillet@MegaPeer
Дата кодирования : UTC 2023-06-22 07:14:33
Программа кодирования : mkvmerge v15.0.0 ('Duel with the Devil') 64-bit
Библиотека кодирования : libebml v1.3.5 + libmatroska v1.4.5
Обложка : Yes
Attachments : cover.jpg
Видео
Идентификатор : 1
Формат : AVC
Формат/Информация : Advanced Video Codec
Профиль формата : High@L4.1
Настройки формата : CABAC / 12 Ref Frames
Параметр CABAC формата : Да
Параметр RefFrames формата : 12 кадров
Идентификатор кодека : V_MPEG4/ISO/AVC
Продолжительность : 1 ч. 40 м.
Битрейт : 1 692 Кбит/сек
Ширина : 1 024 пикселя
Высота : 426 пикселей
Соотношение сторон : 2,40:1
Режим частоты кадров : Постоянный
Частота кадров : 24,000 кадра/сек
Цветовое пространство : YUV
Субдискретизация насыщенности : 4:2:0
Битовая глубина : 8 бит
Тип развёртки : Прогрессивная
Бит/(Пиксели*Кадры) : 0.162
Размер потока : 1,19 Гбайт (81%)
Заголовок : stillet@MegaPeer
Библиотека кодирования : x264 core 164 r3106+55M stillet t_mod_New [(8 & 10)-bit@all X86_64]
Настройки программы : cabac=1 / ref=12 / deblock=1:-3:-3 / analyse=0x3:0x113 / me=umh / subme=10 / psy=1 / fade_compensate=0.00 / psy_rd=1.00:0.00 / mixed_ref=1 / me_range=32 / chroma_me=1 / trellis=2 / 8x8dct=1 / cqm=0 / deadzone=21,11 / fast_pskip=0 / chroma_qp_offset=-2 / threads=12 / lookahead_threads=3 / sliced_threads=0 / nr=0 / decimate=0 / interlaced=0 / bluray_compat=0 / constrained_intra=0 / fgo=0 / bframes=10 / b_pyramid=2 / b_adapt=2 / b_bias=0 / direct=3 / weightb=1 / open_gop=0 / weightp=2 / keyint=240 / keyint_min=24 / scenecut=40 / intra_refresh=0 / rc_lookahead=40 / rc=2pass / mbtree=0 / bitrate=1692 / ratetol=1.0 / qcomp=0.60 / qpmin=0:0:0 / qpmax=69:69:69 / qpstep=4 / cplxblur=20.0 / qblur=0.5 / vbv_maxrate=50000 / vbv_bufsize=62500 / nal_hrd=none / filler=0 / ip_ratio=1.40 / pb_ratio=1.30 / aq=1:1.10 / aq-sensitivity=10.00 / aq-factor=1.00:1.00:1.00 / aq2=0 / aq3=0
Язык : Russian
Default : Да
Forced : Нет
Аудио
Идентификатор : 2
Формат : AC-3
Формат/Информация : Audio Coding 3
Коммерческое название : Dolby Digital
Идентификатор кодека : A_AC3
Продолжительность : 1 ч. 40 м.
Вид битрейта : Постоянный
Битрейт : 384 Кбит/сек
Каналы : 6 каналов
Channel layout : L R C LFE Ls Rs
Частота : 48,0 КГц
Частота кадров : 31,250 кадров/сек (1536 SPF)
Метод сжатия : С потерями
Размер потока : 276 Мбайт (18%)
Заголовок : IVI
Язык : Russian
Service kind : Complete Main
Default : Да
Forced : Да
Скриншоты:
Все одноименные релизы в КлубеВремя раздачи: 24/7 (мультитрекерная раздача)
[Профиль] [ЛС]
Показать сообщения:    
Ответить на тему

Текущее время: 22-Фев 02:16

Часовой пояс: UTC ± 0



Вы не можете начинать темы
Вы не можете отвечать на сообщения
Вы не можете редактировать свои сообщения
Вы не можете удалять свои сообщения
Вы не можете голосовать в опросах
Вы не можете прикреплять файлы к сообщениям
Вы не можете скачивать файлы

[  Время выполнения: 0,043 сек  |  MySQL: 0,003 сек (6%) · 3 запр.  |  GZIP выкл  |  Память: 421,85 KB / 1,74 MB / 1,34 MB  |  Лимит: 7 8 10  ]